  0
SECTION
  2
HEADER
  9
$ACADVER
  1
AC1024
  9
$ACADMAINTVER
 70
     6
  9
$DWGCODEPAGE
  3
ANSI_1252
  9
$INSBASE
 10
0.0
 20
0.0
 30
0.0
  9
$EXTMIN
 10
0.0
 20
0.0
 30
0.0
  9
$EXTMAX
 10
594.0
 20
841.0
 30
0.0
  9
$LIMMIN
 10
0.0
 20
0.0
  9
$LIMMAX
 10
594.0
 20
841.0
  9
$ORTHOMODE
 70
     0
  9
$REGENMODE
 70
     1
  9
$FILLMODE
 70
     1
  9
$QTEXTMODE
 70
     0
  9
$MIRRTEXT
 70
     1
  9
$LTSCALE
 40
1.0
  9
$ATTMODE
 70
     1
  9
$TEXTSIZE
 40
10.0
  9
$TRACEWID
 40
1.0
  9
$TEXTSTYLE
  7
Standard
  9
$CLAYER
  8
0
  9
$CELTYPE
  6
ByLayer
  9
$CECOLOR
 62
   256
  9
$CELTSCALE
 40
1.0
  9
$DISPSILH
 70
     0
  9
$DIMSCALE
 40
1.0
  9
$DIMASZ
 40
2.5
  9
$DIMEXO
 40
0.0
  9
$DIMDLI
 40
3.75
  9
$DIMRND
 40
0.0
  9
$DIMDLE
 40
0.0
  9
$DIMEXE
 40
1.0
  9
$DIMTP
 40
0.0
  9
$DIMTM
 40
0.0
  9
$DIMTXT
 40
3.5
  9
$DIMCEN
 40
2.5
  9
$DIMTSZ
 40
0.0
  9
$DIMTOL
 70
     0
  9
$DIMLIM
 70
     0
  9
$DIMTIH
 70
     1
  9
$DIMTOH
 70
     1
  9
$DIMSE1
 70
     0
  9
$DIMSE2
 70
     0
  9
$DIMTAD
 70
     1
  9
$DIMZIN
 70
     0
  9
$DIMBLK
  1

  9
$DIMASO
 70
     1
  9
$DIMSHO
 70
     1
  9
$DIMPOST
  1

  9
$DIMAPOST
  1

  9
$DIMALT
 70
     0
  9
$DIMALTD
 70
     3
  9
$DIMALTF
 40
0.0393700787
  9
$DIMLFAC
 40
1.0
  9
$DIMTOFL
 70
     1
  9
$DIMTVP
 40
0.0
  9
$DIMTIX
 70
     0
  9
$DIMSOXD
 70
     0
  9
$DIMSAH
 70
     0
  9
$DIMBLK1
  1

  9
$DIMBLK2
  1

  9
$DIMSTYLE
  2
ISO-25
  9
$DIMCLRD
 70
     0
  9
$DIMCLRE
 70
     0
  9
$DIMCLRT
 70
     0
  9
$DIMTFAC
 40
1.0
  9
$DIMGAP
 40
1.5
  9
$DIMJUST
 70
     0
  9
$DIMSD1
 70
     0
  9
$DIMSD2
 70
     0
  9
$DIMTOLJ
 70
     0
  9
$DIMTZIN
 70
     0
  9
$DIMALTZ
 70
     0
  9
$DIMALTTZ
 70
     0
  9
$DIMUPT
 70
     0
  9
$DIMDEC
 70
     2
  9
$DIMTDEC
 70
     2
  9
$DIMALTU
 70
     2
  9
$DIMALTTD
 70
     3
  9
$DIMTXSTY
  7
Standard
  9
$DIMAUNIT
 70
     0
  9
$DIMADEC
 70
     2
  9
$DIMALTRND
 40
0.0
  9
$DIMAZIN
 70
     0
  9
$DIMDSEP
 70
    44
  9
$DIMATFIT
 70
     3
  9
$DIMFRAC
 70
     0
  9
$DIMLDRBLK
  1

  9
$DIMLUNIT
 70
     2
  9
$DIMLWD
 70
    -2
  9
$DIMLWE
 70
    -2
  9
$DIMTMOVE
 70
     0
  9
$DIMFXL
 40
1.0
  9
$DIMFXLON
 70
     0
  9
$DIMJOGANG
 40
0.7853981634
  9
$DIMTFILL
 70
     0
  9
$DIMTFILLCLR
 70
     0
  9
$DIMARCSYM
 70
     0
  9
$DIMLTYPE
  6

  9
$DIMLTEX1
  6

  9
$DIMLTEX2
  6

  9
$DIMTXTDIRECTION
 70
     0
  9
$LUNITS
 70
     2
  9
$LUPREC
 70
     2
  9
$SKETCHINC
 40
1.0
  9
$FILLETRAD
 40
10.0
  9
$AUNITS
 70
     0
  9
$AUPREC
 70
     2
  9
$MENU
  1
.
  9
$ELEVATION
 40
0.0
  9
$PELEVATION
 40
0.0
  9
$THICKNESS
 40
0.0
  9
$LIMCHECK
 70
     0
  9
$CHAMFERA
 40
10.0
  9
$CHAMFERB
 40
10.0
  9
$CHAMFERC
 40
20.0
  9
$CHAMFERD
 40
0.0
  9
$SKPOLY
 70
     0
  9
$TDCREATE
 40
2456274.54138478
  9
$TDUCREATE
 40
2456274.499718113
  9
$TDUPDATE
 40
2456274.541385139
  9
$TDUUPDATE
 40
2456274.499718472
  9
$TDINDWG
 40
0.0000000116
  9
$TDUSRTIMER
 40
0.0000000116
  9
$USRTIMER
 70
     1
  9
$ANGBASE
 50
0.0
  9
$ANGDIR
 70
     0
  9
$PDMODE
 70
     0
  9
$PDSIZE
 40
-1.0
  9
$PLINEWID
 40
0.0
  9
$SPLFRAME
 70
     0
  9
$SPLINETYPE
 70
     6
  9
$SPLINESEGS
 70
     8
  9
$HANDSEED
  5
116
  9
$SURFTAB1
 70
     6
  9
$SURFTAB2
 70
     6
  9
$SURFTYPE
 70
     6
  9
$SURFU
 70
     6
  9
$SURFV
 70
     6
  9
$UCSBASE
  2

  9
$UCSNAME
  2

  9
$UCSORG
 10
0.0
 20
0.0
 30
0.0
  9
$UCSXDIR
 10
1.0
 20
0.0
 30
0.0
  9
$UCSYDIR
 10
0.0
 20
1.0
 30
0.0
  9
$UCSORTHOREF
  2

  9
$UCSORTHOVIEW
 70
     0
  9
$UCSORGTOP
 10
0.0
 20
0.0
 30
0.0
  9
$UCSORGBOTTOM
 10
0.0
 20
0.0
 30
0.0
  9
$UCSORGLEFT
 10
0.0
 20
0.0
 30
0.0
  9
$UCSORGRIGHT
 10
0.0
 20
0.0
 30
0.0
  9
$UCSORGFRONT
 10
0.0
 20
0.0
 30
0.0
  9
$UCSORGBACK
 10
0.0
 20
0.0
 30
0.0
  9
$PUCSBASE
  2

  9
$PUCSNAME
  2

  9
$PUCSORG
 10
0.0
 20
0.0
 30
0.0
  9
$PUCSXDIR
 10
1.0
 20
0.0
 30
0.0
  9
$PUCSYDIR
 10
0.0
 20
1.0
 30
0.0
  9
$PUCSORTHOREF
  2

  9
$PUCSORTHOVIEW
 70
     0
  9
$PUCSORGTOP
 10
0.0
 20
0.0
 30
0.0
  9
$PUCSORGBOTTOM
 10
0.0
 20
0.0
 30
0.0
  9
$PUCSORGLEFT
 10
0.0
 20
0.0
 30
0.0
  9
$PUCSORGRIGHT
 10
0.0
 20
0.0
 30
0.0
  9
$PUCSORGFRONT
 10
0.0
 20
0.0
 30
0.0
  9
$PUCSORGBACK
 10
0.0
 20
0.0
 30
0.0
  9
$USERI1
 70
     0
  9
$USERI2
 70
     0
  9
$USERI3
 70
     0
  9
$USERI4
 70
     0
  9
$USERI5
 70
     0
  9
$USERR1
 40
0.0
  9
$USERR2
 40
0.0
  9
$USERR3
 40
0.0
  9
$USERR4
 40
0.0
  9
$USERR5
 40
0.0
  9
$WORLDVIEW
 70
     1
  9
$SHADEDGE
 70
     3
  9
$SHADEDIF
 70
    70
  9
$TILEMODE
 70
     1
  9
$MAXACTVP
 70
    64
  9
$PINSBASE
 10
0.0
 20
0.0
 30
0.0
  9
$PLIMCHECK
 70
     0
  9
$PEXTMIN
 10
1.0000000000E+20
 20
1.0000000000E+20
 30
1.0000000000E+20
  9
$PEXTMAX
 10
-1.0000000000E+20
 20
-1.0000000000E+20
 30
-1.0000000000E+20
  9
$PLIMMIN
 10
0.0
 20
0.0
  9
$PLIMMAX
 10
420.0
 20
297.0
  9
$UNITMODE
 70
     0
  9
$VISRETAIN
 70
     1
  9
$PLINEGEN
 70
     0
  9
$PSLTSCALE
 70
     1
  9
$TREEDEPTH
 70
  3020
  9
$CMLSTYLE
  2
Standard
  9
$CMLJUST
 70
     0
  9
$CMLSCALE
 40
20.0
  9
$PROXYGRAPHICS
 70
     1
  9
$MEASUREMENT
 70
     1
  9
$CELWEIGHT
370
    -1
  9
$ENDCAPS
280
     0
  9
$JOINSTYLE
280
     0
  9
$LWDISPLAY
290
     1
  9
$INSUNITS
 70
     4
  9
$HYPERLINKBASE
  1

  9
$STYLESHEET
  1

  9
$XEDIT
290
     1
  9
$CEPSNTYPE
380
     0
  9
$PSTYLEMODE
290
     1
  9
$FINGERPRINTGUID
  2
{101ED7C4-A3CA-48EE-9B8C-5531974BF31D}
  9
$VERSIONGUID
  2
{FAEB1C32-E019-11D5-929B-00C0DF256EC4}
  9
$EXTNAMES
290
     1
  9
$PSVPSCALE
 40
0.0
  9
$OLESTARTUP
290
     0
  9
$SORTENTS
280
   127
  9
$INDEXCTL
280
     0
  9
$HIDETEXT
280
     1
  9
$XCLIPFRAME
280
     2
  9
$HALOGAP
280
     0
  9
$OBSCOLOR
 70
   257
  9
$OBSLTYPE
280
     0
  9
$INTERSECTIONDISPLAY
280
     0
  9
$INTERSECTIONCOLOR
 70
   257
  9
$DIMASSOC
280
     2
  9
$PROJECTNAME
  1

  9
$CAMERADISPLAY
290
     0
  9
$LENSLENGTH
 40
50.0
  9
$CAMERAHEIGHT
 40
0.0
  9
$STEPSPERSEC
 40
2.0
  9
$STEPSIZE
 40
6.0
  9
$3DDWFPREC
 40
2.0
  9
$PSOLWIDTH
 40
5.0
  9
$PSOLHEIGHT
 40
80.0
  9
$LOFTANG1
 40
1.5707963268
  9
$LOFTANG2
 40
1.5707963268
  9
$LOFTMAG1
 40
0.0
  9
$LOFTMAG2
 40
0.0
  9
$LOFTPARAM
 70
     7
  9
$LOFTNORMALS
280
     1
  9
$LATITUDE
 40
37.795
  9
$LONGITUDE
 40
-122.394
  9
$NORTHDIRECTION
 40
0.0
  9
$TIMEZONE
 70
 -8000
  9
$LIGHTGLYPHDISPLAY
280
     1
  9
$TILEMODELIGHTSYNCH
280
     1
  9
$SOLIDHIST
280
     1
  9
$SHOWHIST
280
     1
  9
$DWFFRAME
280
     2
  9
$DGNFRAME
280
     2
  9
$REALWORLDSCALE
290
     1
  9
$INTERFERECOLOR
 62
   256
  9
$CSHADOW
280
     0
  9
$SHADOWPLANELOCATION
 40
0.0
  0
ENDSEC
  0
SECTION
  2
CLASSES
  0
CLASS
  1
ACDBDICTIONARYWDFLT
  2
AcDbDictionaryWithDefault
  3
ObjectDBX Classes
 90
        0
 91
        4
280
     0
281
     0
  0
CLASS
  1
VISUALSTYLE
  2
AcDbVisualStyle
  3
ObjectDBX Classes
 90
     4095
 91
        4
280
     0
281
     0
  0
CLASS
  1
MATERIAL
  2
AcDbMaterial
  3
ObjectDBX Classes
 90
     1153
 91
        4
280
     0
281
     0
  0
ENDSEC
  0
SECTION
  2
TABLES
  0
TABLE
  2
VPORT
  5
8
330
0
100
AcDbSymbolTable
 70
     1
  0
VPORT
  5
29
330
8
100
AcDbSymbolTableRecord
100
AcDbViewportTableRecord
  2
*Active
 70
     0
 10
0.0
 20
0.0
 11
1.0
 21
1.0
 12
297.0
 22
420.5
 13
0.0
 23
0.0
 14
10.0
 24
10.0
 15
10.0
 25
10.0
 16
0.0
 26
0.0
 36
1.0
 17
0.0
 27
0.0
 37
0.0
 40
841.0
 41
0.7063020214
 42
50.0
 43
0.0
 44
0.0
 50
0.0
 51
0.0
 71
     0
 72
  2000
 73
     1
 74
     3
 75
     0
 76
     0
 77
     0
 78
     0
281
     0
 65
     1
110
0.0
120
0.0
130
0.0
111
1.0
121
0.0
131
0.0
112
0.0
122
1.0
132
0.0
 79
     0
146
0.0
 60
     3
 61
     5
292
     1
282
     1
141
0.0
142
0.0
 63
   250
  0
ENDTAB
  0
TABLE
  2
LTYPE
  5
5
330
0
100
AcDbSymbolTable
 70
     6
  0
LTYPE
  5
14
330
5
100
AcDbSymbolTableRecord
100
AcDbLinetypeTableRecord
  2
ByBlock
 70
     0
  3

 72
    65
 73
     0
 40
0.0
  0
LTYPE
  5
15
330
5
100
AcDbSymbolTableRecord
100
AcDbLinetypeTableRecord
  2
ByLayer
 70
     0
  3

 72
    65
 73
     0
 40
0.0
  0
LTYPE
  5
16
330
5
100
AcDbSymbolTableRecord
100
AcDbLinetypeTableRecord
  2
Continuous
 70
     0
  3
Solid line
 72
    65
 73
     0
 40
0.0
  0
LTYPE
  5
3F
330
5
100
AcDbSymbolTableRecord
100
AcDbLinetypeTableRecord
  2
HIDDEN
 70
     0
  3
Hidden __ __ __ __ __ __ __ __ __ __ __ __ __ __
 72
    65
 73
     2
 40
1.905
 49
1.27
 74
     0
 49
-0.635
 74
     0
  0
LTYPE
  5
40
330
5
100
AcDbSymbolTableRecord
100
AcDbLinetypeTableRecord
  2
PHANTOM
 70
     0
  3
Phantom ______  __  __  ______  __  __  ______
 72
    65
 73
     6
 40
12.7
 49
6.35
 74
     0
 49
-1.27
 74
     0
 49
1.27
 74
     0
 49
-1.27
 74
     0
 49
1.27
 74
     0
 49
-1.27
 74
     0
  0
LTYPE
  5
41
330
5
100
AcDbSymbolTableRecord
100
AcDbLinetypeTableRecord
  2
CENTER
 70
     0
  3
Center ____ _ ____ _ ____ _ ____ _ ____ _ ____
 72
    65
 73
     4
 40
10.16
 49
6.35
 74
     0
 49
-1.27
 74
     0
 49
1.27
 74
     0
 49
-1.27
 74
     0
  0
LTYPE
  5
42
330
5
100
AcDbSymbolTableRecord
100
AcDbLinetypeTableRecord
  2
CENTERX2
 70
     0
  3
Center (2x) ________  __  ________  __  _____
 72
    65
 73
     4
 40
20.32
 49
12.7
 74
     0
 49
-2.54
 74
     0
 49
2.54
 74
     0
 49
-2.54
 74
     0
  0
LTYPE
  5
43
330
5
100
AcDbSymbolTableRecord
100
AcDbLinetypeTableRecord
  2
DOT2
 70
     0
  3
Dot (.5x) ........................................
 72
    65
 73
     2
 40
0.635
 49
0.0
 74
     0
 49
-0.635
 74
     0
  0
ENDTAB
  0
TABLE
  2
LAYER
  5
2
330
0
100
AcDbSymbolTable
 70
     1
  0
LAYER
  5
10
330
2
100
AcDbSymbolTableRecord
100
AcDbLayerTableRecord
  2
0
 70
     0
 62
     7
  6
Continuous
370
    -3
390
F
347
3E
  0
ENDTAB
  0
TABLE
  2
STYLE
  5
3
330
0
100
AcDbSymbolTable
 70
     3
  0
STYLE
  5
11
330
3
100
AcDbSymbolTableRecord
100
AcDbTextStyleTableRecord
  2
Standard
 70
     0
 40
0.0
 41
1.0
 50
0.0
 71
     0
 42
10.0
  3
txt
  4

  0
STYLE
  5
47
330
3
100
AcDbSymbolTableRecord
100
AcDbTextStyleTableRecord
  2
SLDTEXTSTYLE0
 70
     0
 40
0.0
 41
0.96
 50
0.0
 71
     0
 42
0.2
  3
ISOCP3
  4

  0
STYLE
  5
5E
330
3
100
AcDbSymbolTableRecord
100
AcDbTextStyleTableRecord
  2
SLDTEXTSTYLE1
 70
     0
 40
0.0
 41
0.605
 50
0.0
 71
     0
 42
0.2
  3
TXT
  4

  0
ENDTAB
  0
TABLE
  2
VIEW
  5
6
330
0
100
AcDbSymbolTable
 70
     0
  0
ENDTAB
  0
TABLE
  2
UCS
  5
7
330
0
100
AcDbSymbolTable
 70
     0
  0
ENDTAB
  0
TABLE
  2
APPID
  5
9
330
0
100
AcDbSymbolTable
 70
     1
  0
APPID
  5
12
330
9
100
AcDbSymbolTableRecord
100
AcDbRegAppTableRecord
  2
ACAD
 70
     0
  0
ENDTAB
  0
TABLE
  2
DIMSTYLE
  5
A
330
0
100
AcDbSymbolTable
 70
     2
100
AcDbDimStyleTable
  0
DIMSTYLE
105
27
330
A
100
AcDbSymbolTableRecord
100
AcDbDimStyleTableRecord
  2
ISO-25
 70
     0
 41
2.5
 42
0.625
 43
3.75
 44
1.25
 73
     0
 74
     0
 77
     1
 78
     8
140
2.5
141
2.5
143
0.0393700787
147
0.625
171
     3
172
     1
178
     0
271
     2
272
     2
274
     3
278
    44
283
     0
284
     8
340
11
  0
DIMSTYLE
105
48
102
{ACAD_REACTORS
330
46
330
53
102
}
330
A
100
AcDbSymbolTableRecord
100
AcDbDimStyleTableRecord
  2
SLDDIMSTYLE0
 70
     0
 41
2.5
 44
0.0
 45
0.000000001
 73
     0
 74
     0
 77
     1
 78
    12
 79
     3
140
6.0
147
1.5
173
     1
178
     0
271
     2
272
     2
276
     2
284
    12
340
47
  0
ENDTAB
  0
TABLE
  2
BLOCK_RECORD
  5
1
330
0
100
AcDbSymbolTable
 70
     3
  0
BLOCK_RECORD
  5
1F
330
1
100
AcDbSymbolTableRecord
100
AcDbBlockTableRecord
  2
*Model_Space
340
22
 70
     0
280
     1
281
     0
  0
BLOCK_RECORD
  5
1B
330
1
100
AcDbSymbolTableRecord
100
AcDbBlockTableRecord
  2
*Paper_Space
340
1E
 70
     0
280
     1
281
     0
  0
BLOCK_RECORD
  5
23
330
1
100
AcDbSymbolTableRecord
100
AcDbBlockTableRecord
  2
*Paper_Space0
340
26
 70
     0
280
     1
281
     0
  0
BLOCK_RECORD
  5
49
330
1
100
AcDbSymbolTableRecord
100
AcDbBlockTableRecord
  2
_D
340
0
 70
     0
280
     1
281
     0
  0
BLOCK_RECORD
  5
54
330
1
100
AcDbSymbolTableRecord
100
AcDbBlockTableRecord
  2
_D_1
340
0
 70
     0
280
     1
281
     0
  0
ENDTAB
  0
ENDSEC
  0
SECTION
  2
BLOCKS
  0
BLOCK
  5
20
330
1F
100
AcDbEntity
  8
0
100
AcDbBlockBegin
  2
*Model_Space
 70
     0
 10
0.0
 20
0.0
 30
0.0
  3
*Model_Space
  1

  0
ENDBLK
  5
21
330
1F
100
AcDbEntity
  8
0
100
AcDbBlockEnd
  0
BLOCK
  5
1C
330
1B
100
AcDbEntity
 67
     1
  8
0
100
AcDbBlockBegin
  2
*Paper_Space
 70
     0
 10
0.0
 20
0.0
 30
0.0
  3
*Paper_Space
  1

  0
ENDBLK
  5
1D
330
1B
100
AcDbEntity
 67
     1
  8
0
100
AcDbBlockEnd
  0
BLOCK
  5
24
330
23
100
AcDbEntity
  8
0
100
AcDbBlockBegin
  2
*Paper_Space0
 70
     0
 10
0.0
 20
0.0
 30
0.0
  3
*Paper_Space0
  1

  0
ENDBLK
  5
25
330
23
100
AcDbEntity
  8
0
100
AcDbBlockEnd
  0
BLOCK
  5
4A
330
49
100
AcDbEntity
  8
0
100
AcDbBlockBegin
  2
_D
 70
     0
 10
0.0
 20
0.0
 30
0.0
  3
_D
  1

  0
SOLID
  5
4C
330
49
100
AcDbEntity
  8
0
  6
Continuous
 62
     7
370
     0
100
AcDbTrace
 10
42.7614395004
 20
152.0299240879
 30
0.0
 11
42.4614395004
 21
149.5299240879
 31
0.0
 12
43.0614395004
 22
149.5299240879
 32
0.0
 13
43.0614395004
 23
149.5299240879
 33
0.0
  0
SOLID
  5
4D
330
49
100
AcDbEntity
  8
0
  6
Continuous
 62
     7
370
     0
100
AcDbTrace
 10
42.7614395004
 20
52.0299240879
 30
0.0
 11
43.0614395004
 21
54.5299240879
 31
0.0
 12
42.4614395004
 22
54.5299240879
 32
0.0
 13
42.4614395004
 23
54.5299240879
 33
0.0
  0
LINE
  5
4E
330
49
100
AcDbEntity
  8
0
  6
Continuous
 62
     7
370
     0
100
AcDbLine
 10
56.6850079902
 20
152.0299240879
 30
0.0
 11
41.7614395004
 21
152.0299240879
 31
0.0
  0
LINE
  5
4F
330
49
100
AcDbEntity
  8
0
  6
Continuous
 62
     7
370
     0
100
AcDbLine
 10
56.6850079902
 20
52.0299240879
 30
0.0
 11
41.7614395004
 21
52.0299240879
 31
0.0
  0
LINE
  5
50
330
49
100
AcDbEntity
  8
0
  6
Continuous
 62
     7
370
     0
100
AcDbLine
 10
42.7614395004
 20
152.0299240879
 30
0.0
 11
42.7614395004
 21
52.0299240879
 31
0.0
  0
MTEXT
  5
51
330
49
100
AcDbEntity
  8
0
  6
Continuous
 62
     7
370
     0
100
AcDbMText
 10
35.0270332946
 20
91.6722208134
 30
0.1
 40
6.0
 41
0.0
 46
0.0
 71
     1
 72
     1
  1
100
  7
SLDTEXTSTYLE0
 11
-7.044195017643634E-15
 21
1.0
 31
0.0
 73
     1
 44
1.0
  0
MTEXT
  5
52
330
49
100
AcDbEntity
  8
0
  6
Continuous
 62
     7
370
     0
100
AcDbMText
 10
35.0270332946
 20
108.4388881795
 30
0.1
 40
6.0
 41
0.0
 46
0.0
 71
     1
 72
     1
  1
mm
  7
SLDTEXTSTYLE0
 11
-7.044195017643634E-15
 21
1.0
 31
0.0
 73
     1
 44
1.0
  0
ENDBLK
  5
4B
330
49
100
AcDbEntity
  8
0
100
AcDbBlockEnd
  0
BLOCK
  5
55
330
54
100
AcDbEntity
  8
0
100
AcDbBlockBegin
  2
_D_1
 70
     0
 10
0.0
 20
0.0
 30
0.0
  3
_D_1
  1

  0
SOLID
  5
57
330
54
100
AcDbEntity
  8
0
  6
Continuous
 62
     7
370
     0
100
AcDbTrace
 10
56.6850079902
 20
38.4602342313
 30
0.0
 11
59.1850079902
 21
38.1602342313
 31
0.0
 12
59.1850079902
 22
38.7602342313
 32
0.0
 13
59.1850079902
 23
38.7602342313
 33
0.0
  0
SOLID
  5
58
330
54
100
AcDbEntity
  8
0
  6
Continuous
 62
     7
370
     0
100
AcDbTrace
 10
156.6850079902
 20
38.4602342313
 30
0.0
 11
154.1850079902
 21
38.7602342313
 31
0.0
 12
154.1850079902
 22
38.1602342313
 32
0.0
 13
154.1850079902
 23
38.1602342313
 33
0.0
  0
LINE
  5
59
330
54
100
AcDbEntity
  8
0
  6
Continuous
 62
     7
370
     0
100
AcDbLine
 10
56.6850079902
 20
52.0299240879
 30
0.0
 11
56.6850079902
 21
37.4602342313
 31
0.0
  0
LINE
  5
5A
330
54
100
AcDbEntity
  8
0
  6
Continuous
 62
     7
370
     0
100
AcDbLine
 10
156.6850079902
 20
52.0299240879
 30
0.0
 11
156.6850079902
 21
37.4602342313
 31
0.0
  0
LINE
  5
5B
330
54
100
AcDbEntity
  8
0
  6
Continuous
 62
     7
370
     0
100
AcDbLine
 10
56.6850079902
 20
38.4602342313
 30
0.0
 11
156.6850079902
 21
38.4602342313
 31
0.0
  0
MTEXT
  5
5C
330
54
100
AcDbEntity
  8
0
  6
Continuous
 62
     7
370
     0
100
AcDbMText
 10
91.2668151533
 20
46.1946404371
 30
0.1
 40
6.0
 41
0.0
 46
0.0
 71
     1
 72
     1
  1
100
  7
SLDTEXTSTYLE0
 73
     1
 44
1.0
  0
MTEXT
  5
5D
330
54
100
AcDbEntity
  8
0
  6
Continuous
 62
     7
370
     0
100
AcDbMText
 10
108.0334825193
 20
46.1946404371
 30
0.1
 40
6.0
 41
0.0
 46
0.0
 71
     1
 72
     1
  1
mm
  7
SLDTEXTSTYLE0
 73
     1
 44
1.0
  0
ENDBLK
  5
56
330
54
100
AcDbEntity
  8
0
100
AcDbBlockEnd
  0
ENDSEC
  0
SECTION
  2
ENTITIES
  0
LINE
  5
44
330
1F
100
AcDbEntity
  8
0
  6
Continuous
 62
     7
370
     0
100
AcDbLine
 10
56.6850079902
 20
152.0299240879
 30
0.0
 11
56.6850079902
 21
52.0299240879
 31
0.0
  0
LINE
  5
45
330
1F
100
AcDbEntity
  8
0
  6
Continuous
 62
     7
370
     0
100
AcDbLine
 10
56.6850079902
 20
52.0299240879
 30
0.0
 11
156.6850079902
 21
52.0299240879
 31
0.0
  0
DIMENSION
  5
46
330
1F
100
AcDbEntity
  8
0
  6
Continuous
 62
     7
370
     0
100
AcDbDimension
280
     0
  2
_D
 10
42.7614395004
 20
52.0299240879
 30
0.0
 11
42.7614395004
 21
105.4472211621
 31
0.0
 70
   160
  1
<>mm
 71
     2
 42
-1.0
 73
     0
 74
     0
 75
     0
  3
SLDDIMSTYLE0
100
AcDbAlignedDimension
 13
56.6850079902
 23
152.0299240879
 33
0.0
 14
56.6850079902
 24
52.0299240879
 34
0.0
 50
90.0
100
AcDbRotatedDimension
  0
DIMENSION
  5
53
330
1F
100
AcDbEntity
  8
0
  6
Continuous
 62
     7
370
     0
100
AcDbDimension
280
     0
  2
_D_1
 10
156.6850079902
 20
38.4602342313
 30
0.0
 11
105.0418155019
 21
38.4602342313
 31
0.0
 70
   160
  1
<>mm
 71
     2
 42
-1.0
 73
     0
 74
     0
 75
     0
  3
SLDDIMSTYLE0
100
AcDbAlignedDimension
 13
56.6850079902
 23
52.0299240879
 33
0.0
 14
156.6850079902
 24
52.0299240879
 34
0.0
100
AcDbRotatedDimension
  0
MTEXT
  5
5F
330
1F
100
AcDbEntity
  8
0
  6
Continuous
 62
     7
370
     0
100
AcDbMText
 10
281.2982703948
 20
50.6778691985
 30
0.0
 40
10.0
 41
0.0
 46
0.0
 71
     1
 72
     1
  1
38 533 05 76
  7
SLDTEXTSTYLE1
 73
     1
 44
1.0
  0
MTEXT
  5
60
330
1F
100
AcDbEntity
  8
0
  6
Continuous
 62
     7
370
     0
100
AcDbMText
 10
412.8252631579
 20
48.4342449499
 30
0.0
 40
10.0
 41
0.0
 46
0.0
 71
     1
 72
     1
  1
KLUDI GmbH & Co KG
  7
SLDTEXTSTYLE1
 73
     1
 44
1.0
  0
LINE
  5
61
330
1F
100
AcDbEntity
  8
0
  6
Continuous
 62
     7
370
    15
100
AcDbLine
 10
345.9104321444
 20
400.695045441
 30
0.0
 11
345.9104321444
 21
403.1787486034
 31
0.0
  0
LINE
  5
62
330
1F
100
AcDbEntity
  8
0
  6
Continuous
 62
     7
370
    15
100
AcDbLine
 10
345.9104321444
 20
387.0170563387
 30
0.0
 11
345.9104321444
 21
387.738670486
 31
0.0
  0
LINE
  5
63
330
1F
100
AcDbEntity
  8
0
  6
Continuous
 62
     7
370
    15
100
AcDbLine
 10
345.9104321444
 20
374.7187486034
 30
0.0
 11
345.9104321444
 21
379.020440868
 31
0.0
  0
LINE
  5
64
330
1F
100
AcDbEntity
  8
0
  6
Continuous
 62
     7
370
    15
100
AcDbLine
 10
300.9104321444
 20
403.1787486034
 30
0.0
 11
300.9104321444
 21
378.6825791297
 31
0.0
  0
LINE
  5
65
330
1F
100
AcDbEntity
  8
0
  6
Continuous
 62
     7
370
    15
100
AcDbLine
 10
345.4840815364
 20
358.6449725702
 30
0.0
 11
345.4391889399
 21
367.2187486034
 31
0.0
  0
LINE
  5
66
330
1F
100
AcDbEntity
  8
0
  6
Continuous
 62
     7
370
    15
100
AcDbLine
 10
345.9104321444
 20
277.2187486034
 30
0.0
 11
345.6878887185
 21
319.7210237304
 31
0.0
  0
LINE
  5
67
330
1F
100
AcDbEntity
  8
0
  6
Continuous
 62
     7
370
    15
100
AcDbLine
 10
301.039924516
 20
301.9497438453
 30
0.0
 11
300.9104321444
 21
277.2187486034
 31
0.0
  0
LINE
  5
68
330
1F
100
AcDbEntity
  8
0
  6
Continuous
 62
     7
370
    15
100
AcDbLine
 10
301.3816753489
 20
367.2187486034
 30
0.0
 11
301.1002715709
 21
313.4750770145
 31
0.0
  0
ARC
  5
69
330
1F
100
AcDbEntity
  8
0
  6
Continuous
 62
     7
370
    15
100
AcDbCircle
 10
301.4504321444
 20
403.1787486034
 30
0.0
 40
0.5400000000000205
100
AcDbArc
 50
90.0
 51
180.0
  0
ARC
  5
6A
330
1F
100
AcDbEntity
  8
0
  6
Continuous
 62
     7
370
    15
100
AcDbCircle
 10
345.3704321444
 20
403.1787486034
 30
0.0
 40
0.5400000000000205
100
AcDbArc
 50
0.0
 51
90.0
  0
ARC
  5
6B
330
1F
100
AcDbEntity
  8
0
  6
Continuous
 62
     7
370
    15
100
AcDbCircle
 10
323.4104934768
 20
369.2922145084
 30
0.0
 40
22.00000000000001
100
AcDbArc
 50
155.9508021237
 51
180.1886947161
  0
ARC
  5
6C
330
1F
100
AcDbEntity
  8
0
  6
Continuous
 62
     7
370
    15
100
AcDbCircle
 10
323.4104934768
 20
369.2922145084
 30
0.0
 40
22.00000000000006
100
AcDbArc
 50
0.0
 51
14.2799936915
  0
LINE
  5
6D
330
1F
100
AcDbEntity
  8
0
  6
Continuous
 62
     7
370
    15
100
AcDbLine
 10
301.4104321444
 20
369.2187486034
 30
0.0
 11
301.4104321444
 21
367.2187486034
 31
0.0
  0
LINE
  5
6E
330
1F
100
AcDbEntity
  8
0
  6
Continuous
 62
     7
370
    15
100
AcDbLine
 10
345.4104321444
 20
367.2187486034
 30
0.0
 11
345.4104321444
 21
369.2187486034
 31
0.0
  0
SPLINE
  5
6F
330
1F
100
AcDbEntity
  8
0
  6
Continuous
 62
     7
370
    15
100
AcDbSpline
210
0.0
220
0.0
230
1.0
 70
     8
 71
     3
 72
    18
 73
    14
 74
     0
 42
0.00000001
 43
0.00000001
 12
1.0
 22
0.0
 32
0.0
 13
1.0
 23
0.0
 33
0.0
 40
0.0
 40
0.0
 40
0.0
 40
0.0
 40
0.0463898600071658
 40
0.1506655815400462
 40
0.256334302790556
 40
0.3627202894770641
 40
0.4763494087738824
 40
0.583457840855761
 40
0.6848136172908896
 40
0.7810204216729191
 40
0.8722949575459171
 40
0.9585890559012369
 40
1.0
 40
1.0
 40
1.0
 40
1.0
 10
351.4830090783131
 20
352.7346512426276
 30
0.0
 10
351.3383699448727
 20
352.7304755539294
 30
0.0
 10
350.868609114599
 20
352.7169136986884
 30
0.0
 10
350.0757891029945
 20
352.8606071346407
 30
0.0
 10
349.1351285902174
 20
353.1620291013351
 30
0.0
 10
348.2320977058811
 20
353.6366594968488
 30
0.0
 10
347.4188500590736
 20
354.2592828509753
 30
0.0
 10
346.735413129795
 20
355.0006015175064
 30
0.0
 10
346.2116326067448
 20
355.7966454207721
 30
0.0
 10
345.8352094963753
 20
356.618298999251
 30
0.0
 10
345.6015392009998
 20
357.4403325410759
 30
0.0
 10
345.4902849538105
 20
358.1173986535008
 30
0.0
 10
345.4922216117541
 20
358.5155779442576
 30
0.0
 10
345.4928496122802
 20
358.6446956363546
 30
0.0
  0
SPLINE
  5
70
330
1F
100
AcDbEntity
  8
0
  6
Continuous
 62
     7
370
    15
100
AcDbSpline
210
0.0
220
0.0
230
1.0
 70
     8
 71
     3
 72
    17
 73
    13
 74
     0
 42
0.00000001
 43
0.00000001
 12
1.0
 22
0.0
 32
0.0
 13
1.0
 23
0.0
 33
0.0
 40
0.0
 40
0.0
 40
0.0
 40
0.0
 40
0.074061604570324
 40
0.1696813948152472
 40
0.2704074367013983
 40
0.3737425594411134
 40
0.4785476930733701
 40
0.5841197260571106
 40
0.697577775647664
 40
0.8044847344301185
 40
0.9055997314173904
 40
1.0
 40
1.0
 40
1.0
 40
1.0
 10
345.6967207800848
 20
319.7200236159114
 30
0.0
 10
345.6993558693857
 20
319.9527978419202
 30
0.0
 10
345.7053930816582
 20
320.4861032648228
 30
0.0
 10
345.8793535676642
 20
321.3221506944075
 30
0.0
 10
346.1951579272298
 20
322.2108426630779
 30
0.0
 10
346.6675794307072
 20
323.0625637719632
 30
0.0
 10
347.2805664961051
 20
323.8383881751025
 30
0.0
 10
348.0367666546928
 20
324.5239853200384
 30
0.0
 10
348.9054818155341
 20
325.0749387180684
 30
0.0
 10
349.842344576489
 20
325.4591149864194
 30
0.0
 10
350.7706375599453
 20
325.6832481084163
 30
0.0
 10
351.3847638213171
 20
325.709044805986
 30
0.0
 10
351.6812812510336
 20
325.7215001770386
 30
0.0
  0
LINE
  5
71
330
1F
100
AcDbEntity
  8
0
  6
Continuous
 62
     7
370
    15
100
AcDbLine
 10
351.6806750941
 20
325.7187486034
 30
0.0
 11
408.4104321444
 21
325.7187486034
 31
0.0
  0
LINE
  5
72
330
1F
100
AcDbEntity
  8
0
  6
Continuous
 62
     7
370
    15
100
AcDbLine
 10
408.4104321444
 20
352.7187486034
 30
0.0
 11
351.4835543432
 21
352.7187486034
 31
0.0
  0
LINE
  5
73
330
1F
100
AcDbEntity
  8
0
  6
Continuous
 62
     7
370
    15
100
AcDbLine
 10
416.1239704261
 20
326.4187486034
 30
0.0
 11
424.0739704261
 21
326.4187486034
 31
0.0
  0
LINE
  5
74
330
1F
100
AcDbEntity
  8
0
  6
Continuous
 62
     7
370
    15
100
AcDbLine
 10
424.0739704261
 20
352.0187486034
 30
0.0
 11
416.1239704261
 21
352.0187486034
 31
0.0
  0
LINE
  5
75
330
1F
100
AcDbEntity
  8
0
  6
Continuous
 62
     7
370
    15
100
AcDbLine
 10
431.7932352709
 20
351.2187486034
 30
0.0
 11
424.0739704261
 21
351.2187486034
 31
0.0
  0
LINE
  5
76
330
1F
100
AcDbEntity
  8
0
  6
Continuous
 62
     7
370
    15
100
AcDbLine
 10
424.0739704261
 20
327.2187486034
 30
0.0
 11
431.7932352709
 21
327.2187486034
 31
0.0
  0
LINE
  5
77
330
1F
100
AcDbEntity
  8
0
  6
Continuous
 62
     7
370
    15
100
AcDbLine
 10
416.1239704261
 20
352.0187486034
 30
0.0
 11
414.5739704261
 21
350.4687486034
 31
0.0
  0
LINE
  5
78
330
1F
100
AcDbEntity
  8
0
  6
Continuous
 62
     7
370
    15
100
AcDbLine
 10
414.5739704261
 20
327.9687486034
 30
0.0
 11
416.1239704261
 21
326.4187486034
 31
0.0
  0
LINE
  5
79
330
1F
100
AcDbEntity
  8
0
  6
Continuous
 62
     7
370
    15
100
AcDbLine
 10
408.4104321444
 20
327.9687486034
 30
0.0
 11
414.5739704261
 21
327.9687486034
 31
0.0
  0
LINE
  5
7A
330
1F
100
AcDbEntity
  8
0
  6
Continuous
 62
     7
370
    15
100
AcDbLine
 10
414.5739704261
 20
350.4687486034
 30
0.0
 11
408.4104321444
 21
350.4687486034
 31
0.0
  0
LINE
  5
7B
330
1F
100
AcDbEntity
  8
0
  6
Continuous
 62
     7
370
    15
100
AcDbLine
 10
431.9739704261
 20
350.1937486034
 30
0.0
 11
431.7932352709
 21
351.2187486034
 31
0.0
  0
LINE
  5
7C
330
1F
100
AcDbEntity
  8
0
  6
Continuous
 62
     7
370
    15
100
AcDbLine
 10
431.7932352709
 20
327.2187486034
 30
0.0
 11
431.9739704261
 21
328.2437486034
 31
0.0
  0
SPLINE
  5
7D
330
1F
100
AcDbEntity
  8
0
  6
Continuous
 62
     7
370
    15
100
AcDbSpline
210
0.0
220
0.0
230
1.0
 70
     8
 71
     3
 72
    13
 73
     9
 74
     0
 42
0.00000001
 43
0.00000001
 12
1.0
 22
0.0
 32
0.0
 13
1.0
 23
0.0
 33
0.0
 40
0.0
 40
0.0
 40
0.0
 40
0.0
 40
0.0628010183592903
 40
0.2171778683105963
 40
0.418986749486751
 40
0.6154725391816462
 40
0.8291980266566461
 40
1.0
 40
1.0
 40
1.0
 40
1.0
 10
345.9164812786263
 20
387.7386078560903
 30
0.0
 10
345.9162982109329
 20
387.7873247563021
 30
0.0
 10
345.9156651280238
 20
387.9557970647953
 30
0.0
 10
345.9992167909655
 20
388.274419853254
 30
0.0
 10
346.2070001764224
 20
388.6560652370631
 30
0.0
 10
346.5590816229231
 20
388.9814754605995
 30
0.0
 10
346.9740736808079
 20
389.1892869860787
 30
0.0
 10
347.2743156735789
 20
389.1986836418566
 30
0.0
 10
347.4076791653219
 20
389.2028575111202
 30
0.0
  0
SPLINE
  5
7E
330
1F
100
AcDbEntity
  8
0
  6
Continuous
 62
     7
370
    15
100
AcDbSpline
210
0.0
220
0.0
230
1.0
 70
     8
 71
     3
 72
    14
 73
    10
 74
     0
 42
0.00000001
 43
0.00000001
 12
1.0
 22
0.0
 32
0.0
 13
1.0
 23
0.0
 33
0.0
 40
0.0
 40
0.0
 40
0.0
 40
0.0
 40
0.0971445100684406
 40
0.3132501613842782
 40
0.5122953204238351
 40
0.6780961373226938
 40
0.8206256528204772
 40
0.9416038622940608
 40
1.0
 40
1.0
 40
1.0
 40
1.0
 10
347.4041813306247
 20
399.2382976499049
 30
0.0
 10
347.3288018217089
 20
399.2344354785898
 30
0.0
 10
347.0857346291694
 20
399.2219816015064
 30
0.0
 10
346.7028375245149
 20
399.3716523364256
 30
0.0
 10
346.3385453104002
 20
399.6398008283858
 30
0.0
 10
346.1002795538027
 20
399.958597898418
 30
0.0
 10
345.9709079480718
 20
400.2660377587267
 30
0.0
 10
345.91600826785
 20
400.5113231044637
 30
0.0
 10
345.9151193765173
 20
400.6501478725136
 30
0.0
 10
345.9148299938855
 20
400.695342909594
 30
0.0
  0
ARC
  5
7F
330
1F
100
AcDbEntity
  8
0
  6
Continuous
 62
     7
370
    15
100
AcDbCircle
 10
407.9104321444
 20
398.7187486034
 30
0.0
 40
0.5
100
AcDbArc
 50
0.0
 51
90.0
  0
ARC
  5
80
330
1F
100
AcDbEntity
  8
0
  6
Continuous
 62
     7
370
    15
100
AcDbCircle
 10
407.9104321444
 20
389.7187486034
 30
0.0
 40
0.5
100
AcDbArc
 50
270.0
 51
0.0
  0
LINE
  5
81
330
1F
100
AcDbEntity
  8
0
  6
Continuous
 62
     7
370
    15
100
AcDbLine
 10
347.4045748507
 20
389.2187486034
 30
0.0
 11
407.9104321444
 21
389.2187486034
 31
0.0
  0
LINE
  5
82
330
1F
100
AcDbEntity
  8
0
  6
Continuous
 62
     7
370
    15
100
AcDbLine
 10
407.9104321444
 20
399.2187486034
 30
0.0
 11
347.4044377764
 21
399.2187486034
 31
0.0
  0
LINE
  5
83
330
1F
100
AcDbEntity
  8
0
  6
Continuous
 62
     7
370
    15
100
AcDbLine
 10
345.9101318454
 20
379.0187486034
 30
0.0
 11
346.3104321444
 21
379.0187486034
 31
0.0
  0
LINE
  5
84
330
1F
100
AcDbEntity
  8
0
  6
Continuous
 62
     7
370
    15
100
AcDbLine
 10
346.3104321444
 20
387.0187486034
 30
0.0
 11
345.9101318454
 21
387.0187486034
 31
0.0
  0
LINE
  5
85
330
1F
100
AcDbEntity
  8
0
  6
Continuous
 62
     7
370
    15
100
AcDbLine
 10
346.3104321444
 20
379.0187486034
 30
0.0
 11
346.9109795143
 21
379.2373299703
 31
0.0
  0
LINE
  5
86
330
1F
100
AcDbEntity
  8
0
  6
Continuous
 62
     7
370
    15
100
AcDbLine
 10
346.9109795143
 20
386.8001672364
 30
0.0
 11
346.3104321444
 21
387.0187486034
 31
0.0
  0
ARC
  5
87
330
1F
100
AcDbEntity
  8
0
  6
Continuous
 62
     7
370
    15
100
AcDbCircle
 10
346.8425754856
 20
386.6122287123
 30
0.0
 40
0.2000000000000019
100
AcDbArc
 50
0.0
 51
70.0
  0
ARC
  5
88
330
1F
100
AcDbEntity
  8
0
  6
Continuous
 62
     7
370
    15
100
AcDbCircle
 10
346.8425754856
 20
379.4252684944
 30
0.0
 40
0.2000000000000019
100
AcDbArc
 50
290.0
 51
0.0
  0
LINE
  5
89
330
1F
100
AcDbEntity
  8
0
  6
Continuous
 62
     7
370
    15
100
AcDbLine
 10
347.0425754856
 20
379.4252684944
 30
0.0
 11
347.0425754856
 21
386.6122287123
 31
0.0
  0
LINE
  5
8A
330
1F
100
AcDbEntity
  8
0
  6
Continuous
 62
     7
370
    15
100
AcDbLine
 10
293.2362827455
 20
323.3944616225
 30
0.0
 11
301.0413117906
 21
301.9503205629
 31
0.0
  0
LINE
  5
8B
330
1F
100
AcDbEntity
  8
0
  6
Continuous
 62
     7
370
    15
100
AcDbLine
 10
301.1030194707
 20
313.475997706
 30
0.0
 11
296.9950532287
 21
324.7625421958
 31
0.0
  0
LINE
  5
8C
330
1F
100
AcDbEntity
  8
0
  6
Continuous
 62
     7
370
    15
100
AcDbLine
 10
278.3568975039
 20
324.7104213359
 30
0.0
 11
291.3568975039
 21
324.7104213359
 31
0.0
  0
LINE
  5
8D
330
1F
100
AcDbEntity
  8
0
  6
Continuous
 62
     7
370
    15
100
AcDbLine
 10
291.3568975039
 20
328.7104213359
 30
0.0
 11
278.3568975039
 21
328.7104213359
 31
0.0
  0
ARC
  5
8E
330
1F
100
AcDbEntity
  8
0
  6
Continuous
 62
     7
370
    15
100
AcDbCircle
 10
291.3568975039
 20
322.7104213359
 30
0.0
 40
2.000000000000057
100
AcDbArc
 50
20.0
 51
90.0
  0
ARC
  5
8F
330
1F
100
AcDbEntity
  8
0
  6
Continuous
 62
     7
370
    15
100
AcDbCircle
 10
291.3568975039
 20
322.7104213359
 30
0.0
 40
6.000000000000057
100
AcDbArc
 50
20.0
 51
90.0
  0
LINE
  5
90
330
1F
100
AcDbEntity
  8
0
  6
Continuous
 62
     7
370
    15
100
AcDbLine
 10
300.9104321444
 20
378.6825791297
 30
0.0
 11
323.390432152
 21
374.718748602
 31
0.0
  0
LINE
  5
91
330
1F
100
AcDbEntity
  8
0
  6
Continuous
 62
     7
370
    15
100
AcDbLine
 10
323.3904321444
 20
374.7187486034
 30
0.0
 11
345.9104321444
 21
374.7187486034
 31
0.0
  0
SPLINE
  5
92
330
1F
100
AcDbEntity
  8
0
  6
Continuous
 62
     7
370
    15
100
AcDbSpline
210
0.0
220
0.0
230
1.0
 70
     8
 71
     3
 72
    22
 73
    18
 74
     0
 42
0.00000001
 43
0.00000001
 12
1.0
 22
0.0
 32
0.0
 13
1.0
 23
0.0
 33
0.0
 40
0.0
 40
0.0
 40
0.0
 40
0.0
 40
0.0085249276550473
 40
0.1259987690742287
 40
0.1858668233383221
 40
0.2433880678078881
 40
0.3603477492864057
 40
0.4199158830203524
 40
0.4781110694157925
 40
0.5964403490417474
 40
0.6567113209210971
 40
0.7154672694551115
 40
0.7746339643864196
 40
0.835104475937149
 40
0.896029802261164
 40
0.9478699891355927
 40
1.0
 40
1.0
 40
1.0
 40
1.0
 10
345.910131602315
 20
387.0170563387323
 30
0.0
 10
345.9102245712339
 20
387.0175796633412
 30
0.0
 10
345.9115986555455
 20
387.0253144218306
 30
0.0
 10
345.9038231374944
 20
386.9817728027541
 30
0.0
 10
345.8871645351629
 20
386.8860337139611
 30
0.0
 10
345.8644252566981
 20
386.7524577293989
 30
0.0
 10
345.8342044084553
 20
386.5678985313649
 30
0.0
 10
345.7986861827905
 20
386.3346716381787
 30
0.0
 10
345.760490662501
 20
386.0695721945121
 30
0.0
 10
345.7199037684131
 20
385.7596191049886
 30
0.0
 10
345.6804357006184
 20
385.4118934448431
 30
0.0
 10
345.652208720718
 20
385.1337597319223
 30
0.0
 10
345.6261496080865
 20
384.8403166976926
 30
0.0
 10
345.6027563155569
 20
384.5299545762493
 30
0.0
 10
345.5840032733342
 20
384.2212370435815
 30
0.0
 10
345.5695667796761
 20
383.9201135751102
 30
0.0
 10
345.5634826760879
 20
383.7262688995671
 30
0.0
 10
345.5604321443678
 20
383.629076384194
 30
0.0
  0
SPLINE
  5
93
330
1F
100
AcDbEntity
  8
0
  6
Continuous
 62
     7
370
    15
100
AcDbSpline
210
0.0
220
0.0
230
1.0
 70
     8
 71
     3
 72
    22
 73
    18
 74
     0
 42
0.00000001
 43
0.00000001
 12
1.0
 22
0.0
 32
0.0
 13
1.0
 23
0.0
 33
0.0
 40
0.0
 40
0.0
 40
0.0
 40
0.0
 40
0.0581498999484467
 40
0.1167104966929162
 40
0.1765588685764954
 40
0.236848607457651
 40
0.2949970177656018
 40
0.4132376701367391
 40
0.4734645803669101
 40
0.5321365209729619
 40
0.5912151547991215
 40
0.6515816988797487
 40
0.7123964654287607
 40
0.7709356628319813
 40
0.8900521719851173
 40
0.9507828292511634
 40
0.9999999999999999
 40
0.9999999999999999
 40
0.9999999999999999
 40
0.9999999999999999
 10
345.5604321443678
 20
382.4084208225097
 30
0.0
 10
345.5638824861467
 20
382.3000338121114
 30
0.0
 10
345.5708075385224
 20
382.0824942835851
 30
0.0
 10
345.5870016302107
 20
381.761208909869
 30
0.0
 10
345.6071404097021
 20
381.4448269134769
 30
0.0
 10
345.6308761170861
 20
381.140723766422
 30
0.0
 10
345.6660543359477
 20
380.7550008906828
 30
0.0
 10
345.7054018021722
 20
380.3991670260767
 30
0.0
 10
345.7456181563801
 20
380.0814700964834
 30
0.0
 10
345.7753810103567
 20
379.8636380688625
 30
0.0
 10
345.8039256828229
 20
379.667665970853
 30
0.0
 10
345.8307403029835
 20
379.4932952924084
 30
0.0
 10
345.854589726389
 20
379.3450470371712
 30
0.0
 10
345.8816088723434
 20
379.1830095803523
 30
0.0
 10
345.9002897521142
 20
379.0759875741779
 30
0.0
 10
345.9094273207211
 20
379.0243908036238
 30
0.0
 10
345.9099138236087
 20
379.0216622712904
 30
0.0
 10
345.9101316023145
 20
379.0204408679742
 30
0.0
  0
LINE
  5
94
330
1F
100
AcDbEntity
  8
0
  6
Continuous
 62
     7
370
    15
100
AcDbLine
 10
323.4104321444
 20
367.2187486034
 30
0.0
 11
345.4391889399
 21
367.2187486034
 31
0.0
  0
LINE
  5
95
330
1F
100
AcDbEntity
  8
0
  6
Continuous
 62
     7
370
    15
100
AcDbLine
 10
301.3816753489
 20
367.2187486034
 30
0.0
 11
323.4104321444
 21
367.2187486034
 31
0.0
  0
LINE
  5
96
330
1F
100
AcDbEntity
  8
0
  6
Continuous
 62
     7
370
    15
100
AcDbLine
 10
323.4104321444
 20
277.2187486034
 30
0.0
 11
345.9104321444
 21
277.2187486034
 31
0.0
  0
LINE
  5
97
330
1F
100
AcDbEntity
  8
0
  6
Continuous
 62
     7
370
    15
100
AcDbLine
 10
300.9104321444
 20
277.2187486034
 30
0.0
 11
323.4104321444
 21
277.2187486034
 31
0.0
  0
SPLINE
  5
98
330
1F
100
AcDbEntity
  8
0
  6
Continuous
 62
     7
370
    15
100
AcDbSpline
210
0.0
220
0.0
230
1.0
 70
     8
 71
     3
 72
    32
 73
    28
 74
     0
 42
0.00000001
 43
0.00000001
 12
1.0
 22
0.0
 32
0.0
 13
1.0
 23
0.0
 33
0.0
 40
0.0
 40
0.0
 40
0.0
 40
0.0
 40
0.0145774534856672
 40
0.0252288802968192
 40
0.0361839590443302
 40
0.0536947169581319
 40
0.0716450598474725
 40
0.0949586813486736
 40
0.1185182606908156
 40
0.1666417981986781
 40
0.2373817222390606
 40
0.3087779139883614
 40
0.3815030841228042
 40
0.4545042914577446
 40
0.5322759107191273
 40
0.610340949173615
 40
0.6895223079221653
 40
0.7692429543747511
 40
0.8044794558511195
 40
0.8398488926350406
 40
0.8798919138715013
 40
0.9206123378400537
 40
0.9362500626288985
 40
0.9520680340132488
 40
0.9677372514275302
 40
0.9839501099217476
 40
1.0
 40
1.0
 40
1.0
 40
1.0
 10
301.1005107524076
 20
313.4750757621458
 30
0.0
 10
301.1005546146795
 20
313.4732251684052
 30
0.0
 10
301.1006305261553
 20
313.4700223862453
 30
0.0
 10
301.1020849233706
 20
313.407572005286
 30
0.0
 10
301.1040651444019
 20
313.3214763652395
 30
0.0
 10
301.1070330553604
 20
313.1899942607267
 30
0.0
 10
301.1112077606211
 20
312.9990605770316
 30
0.0
 10
301.1160513854151
 20
312.768015451844
 30
0.0
 10
301.1231537707065
 20
312.4099774740184
 30
0.0
 10
301.1333600628245
 20
311.8443406540392
 30
0.0
 10
301.1449870843526
 20
311.0591799939032
 30
0.0
 10
301.154633656391
 20
310.1540369010481
 30
0.0
 10
301.160397554194
 20
309.2288709052868
 30
0.0
 10
301.1618690738604
 20
308.270640306086
 30
0.0
 10
301.1583863973334
 20
307.2867588123699
 30
0.0
 10
301.1492715406554
 20
306.2769383780231
 30
0.0
 10
301.1342848337997
 20
305.2639018856199
 30
0.0
 10
301.117172099112
 20
304.443493880263
 30
0.0
 10
301.1014194877815
 20
303.8214481965593
 30
0.0
 10
301.0888045095069
 20
303.3723639940671
 30
0.0
 10
301.0746586639255
 20
302.9166275972518
 30
0.0
 10
301.0625407875544
 20
302.5618591680537
 30
0.0
 10
301.0540067708264
 20
302.3251582408379
 30
0.0
 10
301.0488297468477
 20
302.1854975827078
 30
0.0
 10
301.0443602990301
 20
302.0677534450779
 30
0.0
 10
301.0409275348984
 20
301.9791101805799
 30
0.0
 10
301.040286483906
 20
301.9627370811015
 30
0.0
 10
301.0399675774762
 20
301.954591883978
 30
0.0
  0
LINE
  5
99
330
1F
100
AcDbEntity
  8
0
  6
Continuous
 62
     7
370
    15
100
AcDbLine
 10
323.4104321444
 20
403.7187486034
 30
0.0
 11
345.3704321444
 21
403.7187486034
 31
0.0
  0
LINE
  5
9A
330
1F
100
AcDbEntity
  8
0
  6
Continuous
 62
     7
370
    15
100
AcDbLine
 10
301.4504321444
 20
403.7187486034
 30
0.0
 11
323.4104321444
 21
403.7187486034
 31
0.0
  0
LINE
  5
9B
330
1F
100
AcDbEntity
  8
0
  6
Continuous
 62
     7
370
    15
100
AcDbLine
 10
408.4104321444
 20
352.7187486034
 30
0.0
 11
408.4104321444
 21
325.7187486034
 31
0.0
  0
LINE
  5
9C
330
1F
100
AcDbEntity
  8
0
  6
Continuous
 62
     7
370
    15
100
AcDbLine
 10
424.0739704261
 20
326.4187486034
 30
0.0
 11
424.0739704261
 21
352.0187486034
 31
0.0
  0
LINE
  5
9D
330
1F
100
AcDbEntity
  8
0
  6
Continuous
 62
     7
370
    15
100
AcDbLine
 10
416.1239704261
 20
343.6729600936
 30
0.0
 11
417.5739704261
 21
343.6729600936
 31
0.0
  0
LINE
  5
9E
330
1F
100
AcDbEntity
  8
0
  6
Continuous
 62
     7
370
    15
100
AcDbLine
 10
416.1239704261
 20
343.6729600936
 30
0.0
 11
416.1239704261
 21
352.0187486034
 31
0.0
  0
LINE
  5
9F
330
1F
100
AcDbEntity
  8
0
  6
Continuous
 62
     7
370
    15
100
AcDbLine
 10
416.1239704261
 20
326.4187486034
 30
0.0
 11
416.1239704261
 21
334.7645371131
 31
0.0
  0
LINE
  5
A0
330
1F
100
AcDbEntity
  8
0
  6
Continuous
 62
     7
370
    15
100
AcDbLine
 10
417.5739704261
 20
334.7645371131
 30
0.0
 11
416.1239704261
 21
334.7645371131
 31
0.0
  0
LINE
  5
A1
330
1F
100
AcDbEntity
  8
0
  6
Continuous
 62
     7
370
    15
100
AcDbLine
 10
417.5739704261
 20
334.7645371131
 30
0.0
 11
417.5739704261
 21
343.6729600936
 31
0.0
  0
LINE
  5
A2
330
1F
100
AcDbEntity
  8
0
  6
Continuous
 62
     7
370
    15
100
AcDbLine
 10
431.7932352709
 20
334.1997845668
 30
0.0
 11
431.7932352709
 21
327.2187486034
 31
0.0
  0
LINE
  5
A3
330
1F
100
AcDbEntity
  8
0
  6
Continuous
 62
     7
370
    15
100
AcDbLine
 10
431.7932352709
 20
351.2187486034
 30
0.0
 11
431.7932352709
 21
344.2377126399
 31
0.0
  0
LINE
  5
A4
330
1F
100
AcDbEntity
  8
0
  6
Continuous
 62
     7
370
    15
100
AcDbLine
 10
431.7932352709
 20
344.2377126399
 30
0.0
 11
427.9739704261
 21
344.2377126399
 31
0.0
  0
LINE
  5
A5
330
1F
100
AcDbEntity
  8
0
  6
Continuous
 62
     7
370
    15
100
AcDbLine
 10
427.9739704261
 20
334.1997845668
 30
0.0
 11
427.9739704261
 21
344.2377126399
 31
0.0
  0
LINE
  5
A6
330
1F
100
AcDbEntity
  8
0
  6
Continuous
 62
     7
370
    15
100
AcDbLine
 10
427.9739704261
 20
334.1997845668
 30
0.0
 11
431.7932352709
 21
334.1997845668
 31
0.0
  0
SPLINE
  5
A7
330
1F
100
AcDbEntity
  8
0
  6
Continuous
 62
     7
370
    15
100
AcDbSpline
210
0.0
220
0.0
230
1.0
 70
     8
 71
     3
 72
    18
 73
    14
 74
     0
 42
0.00000001
 43
0.00000001
 12
1.0
 22
0.0
 32
0.0
 13
1.0
 23
0.0
 33
0.0
 40
0.0
 40
0.0
 40
0.0
 40
0.0
 40
0.1250000000000007
 40
0.1250000000000007
 40
0.2500000000000013
 40
0.2500000000000013
 40
0.5000000000000012
 40
0.5000000000000012
 40
0.625
 40
0.625
 40
0.7499999999999988
 40
0.7499999999999988
 40
1.0
 40
1.0
 40
1.0
 40
1.0
 10
416.1239704261365
 20
334.764537113088
 30
0.0
 10
415.999420299311
 20
335.1224549234235
 30
0.0
 10
415.8858042178309
 20
335.487095349083
 30
0.0
 10
415.6871501704877
 20
336.2231215920107
 30
0.0
 10
415.6020125840365
 20
336.5945561190656
 30
0.0
 10
415.3946233868481
 20
337.7204393056466
 30
0.0
 10
415.3232844655068
 20
338.4740437073356
 30
0.0
 10
415.3243209312906
 20
339.6075599177951
 30
0.0
 10
415.3425520175448
 20
339.9860051020722
 30
0.0
 10
415.4146415597501
 20
340.7441034888419
 30
0.0
 10
415.468495144265
 20
341.122125933744
 30
0.0
 10
415.6762043986342
 20
342.2372155390271
 30
0.0
 10
415.8766032992609
 20
342.9621049330739
 30
0.0
 10
416.1239704261363
 20
343.6729600936171
 30
0.0
  0
LINE
  5
A8
330
1F
100
AcDbEntity
  8
0
  6
Continuous
 62
     7
370
    15
100
AcDbLine
 10
414.5739704261
 20
327.9687486034
 30
0.0
 11
414.5739704261
 21
350.4687486034
 31
0.0
  0
SPLINE
  5
A9
330
1F
100
AcDbEntity
  8
0
  6
Continuous
 62
     7
370
    15
100
AcDbSpline
210
0.0
220
0.0
230
1.0
 70
     8
 71
     3
 72
     8
 73
     4
 74
     0
 42
0.00000001
 43
0.00000001
 12
1.0
 22
0.0
 32
0.0
 13
1.0
 23
0.0
 33
0.0
 40
0.0
 40
0.0
 40
0.0
 40
0.0
 40
1.0
 40
1.0
 40
1.0
 40
1.0
 10
431.9739704261368
 20
340.499617449098
 30
0.0
 10
431.9482438751048
 20
341.7497689965651
 30
0.0
 10
431.884851777907
 20
342.9954251238392
 30
0.0
 10
431.7932352709106
 20
344.2377126398848
 30
0.0
  0
LINE
  5
AA
330
1F
100
AcDbEntity
  8
0
  6
Continuous
 62
     7
370
    15
100
AcDbLine
 10
431.9739704261
 20
340.4996174491
 30
0.0
 11
431.9739704261
 21
337.9378797576
 31
0.0
  0
SPLINE
  5
AB
330
1F
100
AcDbEntity
  8
0
  6
Continuous
 62
     7
370
    15
100
AcDbSpline
210
0.0
220
0.0
230
1.0
 70
     8
 71
     3
 72
     8
 73
     4
 74
     0
 42
0.00000001
 43
0.00000001
 12
1.0
 22
0.0
 32
0.0
 13
1.0
 23
0.0
 33
0.0
 40
0.0
 40
0.0
 40
0.0
 40
0.0
 40
1.0
 40
1.0
 40
1.0
 40
1.0
 10
431.7932352709106
 20
334.1997845668212
 30
0.0
 10
431.8848582011095
 20
335.4421591792271
 30
0.0
 10
431.9482458594296
 20
336.6878246360765
 30
0.0
 10
431.9739704261368
 20
337.9378797576081
 30
0.0
  0
LINE
  5
AC
330
1F
100
AcDbEntity
  8
0
  6
Continuous
 62
     7
370
    15
100
AcDbLine
 10
431.9739704261
 20
350.1937486034
 30
0.0
 11
431.9739704261
 21
340.4996174491
 31
0.0
  0
LINE
  5
AD
330
1F
100
AcDbEntity
  8
0
  6
Continuous
 62
     7
370
    15
100
AcDbLine
 10
431.9739704261
 20
337.9378797576
 30
0.0
 11
431.9739704261
 21
328.2437486034
 31
0.0
  0
LINE
  5
AE
330
1F
100
AcDbEntity
  8
0
  6
Continuous
 62
     7
370
    15
100
AcDbLine
 10
408.4104321444
 20
398.7187486034
 30
0.0
 11
408.4104321444
 21
389.7187486034
 31
0.0
  0
LINE
  5
AF
330
1F
100
AcDbEntity
  8
0
  6
Continuous
 62
     7
370
    15
100
AcDbLine
 10
345.5604321444
 20
382.4084208225
 30
0.0
 11
345.5604321444
 21
383.6290763842
 31
0.0
  0
LINE
  5
B0
330
1F
100
AcDbEntity
  8
0
  6
Continuous
 62
     7
370
    15
100
AcDbLine
 10
346.3104321444
 20
383.0187486034
 30
0.0
 11
346.3104321444
 21
387.0187486034
 31
0.0
  0
LINE
  5
B1
330
1F
100
AcDbEntity
  8
0
  6
Continuous
 62
     7
370
    15
100
AcDbLine
 10
346.3104321444
 20
379.0187486034
 30
0.0
 11
346.3104321444
 21
383.0187486034
 31
0.0
  0
LINE
  5
B2
330
1F
100
AcDbEntity
  8
0
  6
Continuous
 62
     7
370
    15
100
AcDbLine
 10
278.3568975039
 20
324.7104213359
 30
0.0
 11
278.3568975039
 21
328.7104213359
 31
0.0
  0
SPLINE
  5
B3
330
1F
100
AcDbEntity
  8
0
  6
Continuous
 62
     8
370
     0
100
AcDbSpline
210
0.0
220
0.0
230
1.0
 70
     8
 71
     3
 72
    17
 73
    13
 74
     0
 42
0.00000001
 43
0.00000001
 12
1.0
 22
0.0
 32
0.0
 13
1.0
 23
0.0
 33
0.0
 40
0.0
 40
0.0
 40
0.0
 40
0.0
 40
0.1028973153067486
 40
0.2083045148159712
 40
0.3123756054504787
 40
0.4190580573123878
 40
0.5242984014142203
 40
0.6324575212518342
 40
0.737283522393217
 40
0.8455143292736421
 40
0.9467985326513706
 40
1.0
 40
1.0
 40
1.0
 40
1.0
 10
345.0695228671452
 20
394.2187486033518
 30
0.0
 10
345.0736442360549
 20
394.5595259488317
 30
0.0
 10
345.0819875028211
 20
395.2493929234836
 30
0.0
 10
345.1477637908419
 20
396.2595062713035
 30
0.0
 10
345.2470042491539
 20
397.2320231192473
 30
0.0
 10
345.3730667680858
 20
398.1304820819783
 30
0.0
 10
345.5138997004136
 20
398.9418986244232
 30
0.0
 10
345.6524753079044
 20
399.6259515873346
 30
0.0
 10
345.7758577936249
 20
400.1722574769639
 30
0.0
 10
345.8631785772238
 20
400.5319697256151
 30
0.0
 10
345.9088247960976
 20
400.7124461160603
 30
0.0
 10
345.9055512735582
 20
400.6995028255586
 30
0.0
 10
345.9044239443912
 20
400.6950454409754
 30
0.0
  0
SPLINE
  5
B4
330
1F
100
AcDbEntity
  8
0
  6
Continuous
 62
     8
370
     0
100
AcDbSpline
210
0.0
220
0.0
230
1.0
 70
     8
 71
     3
 72
    17
 73
    13
 74
     0
 42
0.00000001
 43
0.00000001
 12
1.0
 22
0.0
 32
0.0
 13
1.0
 23
0.0
 33
0.0
 40
0.0
 40
0.0
 40
0.0
 40
0.0
 40
0.0363519169754188
 40
0.1395351626724269
 40
0.239051261125407
 40
0.3415987994405235
 40
0.4454602279801105
 40
0.5522477157374992
 40
0.6611100810122716
 40
0.7730093774088453
 40
0.8848807683611967
 40
1.0
 40
1.0
 40
1.0
 40
1.0
 10
345.9053833347326
 20
387.738670485974
 30
0.0
 10
345.906715117098
 20
387.7334142363346
 30
0.0
 10
345.9118271025027
 20
387.7132383636576
 30
0.0
 10
345.8741715352891
 20
387.8616006029523
 30
0.0
 10
345.7967387829518
 20
388.1779663910555
 30
0.0
 10
345.6850494606676
 20
388.6629127326569
 30
0.0
 10
345.551784833708
 20
389.3001131156181
 30
0.0
 10
345.4099883679812
 20
390.0786688934841
 30
0.0
 10
345.2742697505962
 20
390.986029055797
 30
0.0
 10
345.1628055679467
 20
391.9953102691047
 30
0.0
 10
345.0848424484581
 20
393.0854242363986
 30
0.0
 10
345.0746778733748
 20
393.837387386456
 30
0.0
 10
345.0695228671452
 20
394.2187486033518
 30
0.0
  0
SPLINE
  5
B5
330
1F
100
AcDbEntity
  8
0
  6
Continuous
 62
     8
370
     0
100
AcDbSpline
210
0.0
220
0.0
230
1.0
 70
     8
 71
     3
 72
    38
 73
    34
 74
     0
 42
0.00000001
 43
0.00000001
 12
1.0
 22
0.0
 32
0.0
 13
1.0
 23
0.0
 33
0.0
 40
0.0
 40
0.0
 40
0.0
 40
0.0
 40
0.0173827454646144
 40
0.0503419854861293
 40
0.0636784655476233
 40
0.1025044117173443
 40
0.1425138564730132
 40
0.1881349396597793
 40
0.234796909525525
 40
0.2633123329853982
 40
0.2919928708386215
 40
0.3211626069950475
 40
0.3504958045071161
 40
0.3978701539881729
 40
0.4460843149173312
 40
0.495026182018428
 40
0.5200370888403273
 40
0.5452047987057582
 40
0.5866257464096457
 40
0.6286745608535446
 40
0.6563310165337511
 40
0.6841349676794304
 40
0.7123821279760874
 40
0.7407799300444199
 40
0.7673763064302009
 40
0.7941179576087704
 40
0.8213723399102206
 40
0.8488380546294458
 40
0.8864365717767596
 40
0.9249359014649275
 40
0.9507323610835101
 40
0.986787036245402
 40
1.0
 40
1.0
 40
1.0
 40
1.0
 10
345.669646084057
 20
319.7209282112837
 30
0.0
 10
345.6725892160966
 20
319.715556052756
 30
0.0
 10
345.6811127897014
 20
319.6999978012025
 30
0.0
 10
345.561218343486
 20
319.9188227937048
 30
0.0
 10
345.33994990266
 20
320.3267010140486
 30
0.0
 10
344.9985288571163
 20
320.9621273358239
 30
0.0
 10
344.3897245088399
 20
322.1285668244029
 30
0.0
 10
343.626620756056
 20
323.6576458750555
 30
0.0
 10
342.8742939808549
 20
325.2730292933053
 30
0.0
 10
342.2246599964159
 20
326.7836449048114
 30
0.0
 10
341.6951632094229
 20
328.1093954807801
 30
0.0
 10
341.1848848689459
 20
329.5115191617604
 30
0.0
 10
340.6117372330316
 20
331.2849960095802
 30
0.0
 10
340.0337665419656
 20
333.4781640534226
 30
0.0
 10
339.5705743385195
 20
336.1286624837089
 30
0.0
 10
339.4035512517821
 20
338.4302951729786
 30
0.0
 10
339.4207353842265
 20
340.3002065441761
 30
0.0
 10
339.5305800791553
 20
342.0204420101039
 30
0.0
 10
339.8027913234029
 20
344.0327939697303
 30
0.0
 10
340.235954123886
 20
346.0246091595226
 30
0.0
 10
340.702365370817
 20
347.7074019528957
 30
0.0
 10
341.1493997654526
 20
349.1030048773007
 30
0.0
 10
341.6352965448679
 20
350.4555261433945
 30
0.0
 10
342.1365668587683
 20
351.7279254074829
 30
0.0
 10
342.6382287087272
 20
352.9128554236319
 30
0.0
 10
343.1312837598049
 20
354.0124739408631
 30
0.0
 10
343.6165777082381
 20
355.0442252133175
 30
0.0
 10
344.1373380651787
 20
356.1082888370279
 30
0.0
 10
344.6609779883065
 20
357.137458020734
 30
0.0
 10
345.0739791320399
 20
357.92310559836
 30
0.0
 10
345.3502609921429
 20
358.4403066727105
 30
0.0
 10
345.4904049283506
 20
358.69944978553
 30
0.0
 10
345.4671385948066
 20
358.656397317616
 30
0.0
 10
345.4608988555258
 20
358.6448511848886
 30
0.0
  0
SPLINE
  5
B6
330
1F
100
AcDbEntity
  8
0
  6
Continuous
 62
     8
370
     0
100
AcDbSpline
210
0.0
220
0.0
230
1.0
 70
     8
 71
     3
 72
    52
 73
    48
 74
     0
 42
0.00000001
 43
0.00000001
 12
1.0
 22
0.0
 32
0.0
 13
1.0
 23
0.0
 33
0.0
 40
0.0
 40
0.0
 40
0.0
 40
0.0
 40
0.0004312686852124
 40
0.0206246256629643
 40
0.0410064646052237
 40
0.0539078029667184
 40
0.075154986857799
 40
0.0965835483228158
 40
0.1185274435005646
 40
0.1406244065726469
 40
0.1638894955074266
 40
0.1916882855542089
 40
0.2196793497941793
 40
0.2482010887755771
 40
0.2768824725188901
 40
0.3038679027048689
 40
0.3309872684562709
 40
0.3585740885065152
 40
0.3863613578097871
 40
0.4047533586329988
 40
0.4232438503591436
 40
0.4421060586003779
 40
0.4611307913773866
 40
0.4758469670461141
 40
0.5057836385462653
 40
0.5210481642172382
 40
0.5464282169849652
 40
0.5677385290162079
 40
0.589265783570777
 40
0.6113512362273725
 40
0.6335822711703926
 40
0.6619678263717925
 40
0.6905439783912419
 40
0.7196378830968223
 40
0.7488918686714656
 40
0.7729478525543678
 40
0.7971023749043047
 40
0.8215940726929113
 40
0.8462200636178665
 40
0.8671470096681162
 40
0.8881881663373121
 40
0.9096349203629662
 40
0.9312457887015017
 40
0.9519850421853759
 40
0.9729106006436538
 40
0.9944673202660064
 40
0.9999999999999999
 40
0.9999999999999999
 40
0.9999999999999999
 40
0.9999999999999999
 10
351.4831319775229
 20
352.7180999688405
 30
0.0
 10
351.4833507704564
 20
352.718319818389
 30
0.0
 10
351.4938141370426
 20
352.728833715634
 30
0.0
 10
351.4574770861183
 20
352.6923461516263
 30
0.0
 10
351.3793628121926
 20
352.6137448777508
 30
0.0
 10
351.2491932536822
 20
352.4821865381277
 30
0.0
 10
351.0738116412845
 20
352.3039939547712
 30
0.0
 10
350.8111729241762
 20
352.0345150750682
 30
0.0
 10
350.4922597558252
 20
351.7030072978456
 30
0.0
 10
350.1168265286497
 20
351.3062532237618
 30
0.0
 10
349.6641411593291
 20
350.8178977144737
 30
0.0
 10
349.1311731199402
 20
350.2267373635909
 30
0.0
 10
348.5255064032901
 20
349.529098741337
 30
0.0
 10
347.8884767847759
 20
348.7600584372361
 30
0.0
 10
347.2469122779601
 20
347.9386688085602
 30
0.0
 10
346.6173053725813
 20
347.0728824733566
 30
0.0
 10
346.0097578281147
 20
346.1618708109947
 30
0.0
 10
345.4251476211547
 20
345.1820079374235
 30
0.0
 10
344.9449636053114
 20
344.2489187912352
 30
0.0
 10
344.5704512377191
 20
343.3886079419148
 30
0.0
 10
344.2875982864786
 20
342.617969559567
 30
0.0
 10
344.0515256959391
 20
341.810529890821
 30
0.0
 10
343.8875305023887
 20
341.0337681195255
 30
0.0
 10
343.7581892820393
 20
340.0755534353128
 30
0.0
 10
343.7295771349499
 20
339.1568144190754
 30
0.0
 10
343.8108323251324
 20
338.0833348628777
 30
0.0
 10
343.9689635769897
 20
337.1542910512547
 30
0.0
 10
344.2382678686106
 20
336.1659980223953
 30
0.0
 10
344.5637096529137
 20
335.2611188975979
 30
0.0
 10
344.9507266967292
 20
334.3835087252791
 30
0.0
 10
345.4268624299364
 20
333.4599743736732
 30
0.0
 10
345.9901387952685
 20
332.5090798015203
 30
0.0
 10
346.6357917245054
 20
331.5404486447641
 30
0.0
 10
347.3049480808464
 20
330.6254087417763
 30
0.0
 10
347.9410811979945
 20
329.8175051229877
 30
0.0
 10
348.5290793386716
 20
329.1098292829082
 30
0.0
 10
349.0647269074376
 20
328.49101843212
 30
0.0
 10
349.5799187111307
 20
327.9161096605192
 30
0.0
 10
350.0402218861115
 20
327.4172440144067
 30
0.0
 10
350.4413818236075
 20
326.9920510014314
 30
0.0
 10
350.7850582173976
 20
326.6340764923094
 30
0.0
 10
351.0865406770092
 20
326.3246030161101
 30
0.0
 10
351.3327588310993
 20
326.074813348265
 30
0.0
 10
351.519821418926
 20
325.8866967506131
 30
0.0
 10
351.63825655559
 20
325.7682889694703
 30
0.0
 10
351.6927198805066
 20
325.7140271121568
 30
0.0
 10
351.6829626736646
 20
325.7237519276912
 30
0.0
 10
351.6809698830588
 20
325.7257381027673
 30
0.0
  0
SPLINE
  5
B7
330
1F
100
AcDbEntity
  8
0
  6
Continuous
 62
     8
370
     0
100
AcDbSpline
210
0.0
220
0.0
230
1.0
 70
     8
 71
     3
 72
    19
 73
    15
 74
     0
 42
0.00000001
 43
0.00000001
 12
1.0
 22
0.0
 32
0.0
 13
1.0
 23
0.0
 33
0.0
 40
0.0
 40
0.0
 40
0.0
 40
0.0
 40
0.0054769600362581
 40
0.1075679634530367
 40
0.2127795958392439
 40
0.2198957879239576
 40
0.3270595984322342
 40
0.4374472578076241
 40
0.5420763654683308
 40
0.6495371210222978
 40
0.7514268412941671
 40
0.8561531486066435
 40
0.9590136210883751
 40
1.0
 40
1.0
 40
1.0
 40
1.0
 10
346.5134622486636
 20
394.2187486033518
 30
0.0
 10
346.5134771945386
 20
394.204308439876
 30
0.0
 10
346.5137707328008
 20
393.9207023944176
 30
0.0
 10
346.532514266868
 20
393.3591657524554
 30
0.0
 10
346.5832134314433
 20
392.8110379621338
 30
0.0
 10
346.6493326320435
 20
392.269416014038
 30
0.0
 10
346.7317047880024
 20
391.7335620188108
 30
0.0
 10
346.8751822625139
 20
391.0402566461142
 30
0.0
 10
347.0274515325791
 20
390.4366813720606
 30
0.0
 10
347.1684360402114
 20
389.9503152784951
 30
0.0
 10
347.2884824746436
 20
389.573977347022
 30
0.0
 10
347.370592519585
 20
389.3320230444767
 30
0.0
 10
347.411435950349
 20
389.2158825603137
 30
0.0
 10
347.406083472792
 20
389.2311212822685
 30
0.0
 10
347.4045583878065
 20
389.2354632614368
 30
0.0
  0
SPLINE
  5
B8
330
1F
100
AcDbEntity
  8
0
  6
Continuous
 62
     8
370
     0
100
AcDbSpline
210
0.0
220
0.0
230
1.0
 70
     8
 71
     3
 72
    17
 73
    13
 74
     0
 42
0.00000001
 43
0.00000001
 12
1.0
 22
0.0
 32
0.0
 13
1.0
 23
0.0
 33
0.0
 40
0.0
 40
0.0
 40
0.0
 40
0.0
 40
0.0509146727890369
 40
0.1586854439826623
 40
0.265883588501369
 40
0.3764276403671303
 40
0.4821890726287724
 40
0.5908777187961518
 40
0.6931657996840134
 40
0.7982200667220191
 40
0.8976874373955511
 40
1.0
 40
1.0
 40
1.0
 40
1.0
 10
347.4044392308458
 20
399.2017003366948
 30
0.0
 10
347.4056050561525
 20
399.2050212297175
 30
0.0
 10
347.4092385766343
 20
399.2153714363446
 30
0.0
 10
347.3618079387086
 20
399.0802660913852
 30
0.0
 10
347.2686522700938
 20
398.803653585176
 30
0.0
 10
347.1389977826759
 20
398.3906959247172
 30
0.0
 10
346.9899734935197
 20
397.8613118051677
 30
0.0
 10
346.8410392780253
 20
397.2452814560542
 30
0.0
 10
346.7047303758138
 20
396.5480045837268
 30
0.0
 10
346.5990048152786
 20
395.8067809241464
 30
0.0
 10
346.5273044913886
 20
395.0209809460099
 30
0.0
 10
346.5181195004688
 20
394.4886613696743
 30
0.0
 10
346.5134622486636
 20
394.2187486033518
 30
0.0
  0
LINE
  5
B9
330
1F
100
AcDbEntity
  8
0
  6
Continuous
 62
     8
370
     0
100
AcDbLine
 10
407.9104321444
 20
389.2187486034
 30
0.0
 11
407.9104321444
 21
399.2187486034
 31
0.0
  0
LINE
  5
BA
330
1F
100
AcDbEntity
  8
0
  6
Continuous
 62
     7
370
    15
100
AcDbLine
 10
224.3187545819
 20
277.2187486034
 30
0.0
 11
223.8475113774
 21
367.2187486034
 31
0.0
  0
LINE
  5
BB
330
1F
100
AcDbEntity
  8
0
  6
Continuous
 62
     7
370
    15
100
AcDbLine
 10
179.7899977864
 20
367.2187486034
 30
0.0
 11
179.3187545819
 21
277.2187486034
 31
0.0
  0
LINE
  5
BC
330
1F
100
AcDbEntity
  8
0
  6
Continuous
 62
     7
370
    15
100
AcDbLine
 10
224.3187545819
 20
374.7187486034
 30
0.0
 11
224.3187545819
 21
403.1787486034
 31
0.0
  0
LINE
  5
BD
330
1F
100
AcDbEntity
  8
0
  6
Continuous
 62
     7
370
    15
100
AcDbLine
 10
179.3187545819
 20
403.1787486034
 30
0.0
 11
179.3187545819
 21
374.7187486034
 31
0.0
  0
ARC
  5
BE
330
1F
100
AcDbEntity
  8
0
  6
Continuous
 62
     7
370
    15
100
AcDbCircle
 10
179.8587545819
 20
403.1787486034
 30
0.0
 40
0.5400000000000205
100
AcDbArc
 50
90.0
 51
180.0
  0
ARC
  5
BF
330
1F
100
AcDbEntity
  8
0
  6
Continuous
 62
     7
370
    15
100
AcDbCircle
 10
223.7787545819
 20
403.1787486034
 30
0.0
 40
0.5400000000000205
100
AcDbArc
 50
0.0
 51
90.0
  0
LINE
  5
C0
330
1F
100
AcDbEntity
  8
0
  6
Continuous
 62
     7
370
    15
100
AcDbLine
 10
179.8187545819
 20
369.2187486034
 30
0.0
 11
179.8187545819
 21
367.2187486034
 31
0.0
  0
LINE
  5
C1
330
1F
100
AcDbEntity
  8
0
  6
Continuous
 62
     7
370
    15
100
AcDbLine
 10
223.8187545819
 20
367.2187486034
 30
0.0
 11
223.8187545819
 21
369.2187486034
 31
0.0
  0
ARC
  5
C2
330
1F
100
AcDbEntity
  8
0
  6
Continuous
 62
     7
370
    15
100
AcDbCircle
 10
201.8188608128
 20
369.2922145084
 30
0.0
 40
22.00000000000001
100
AcDbArc
 50
165.7200063085
 51
180.1886900414
  0
ARC
  5
C3
330
1F
100
AcDbEntity
  8
0
  6
Continuous
 62
     7
370
    15
100
AcDbCircle
 10
201.8188608128
 20
369.2922145084
 30
0.0
 40
21.99999999999999
100
AcDbArc
 50
0.0
 51
14.2799936915
  0
ARC
  5
C4
330
1F
100
AcDbEntity
  8
0
  6
Continuous
 62
     7
370
    15
100
AcDbCircle
 10
201.8187545819
 20
339.2187486034
 30
0.0
 40
10.975
100
AcDbArc
 50
186.7021420484
 51
353.2978579516
  0
SPLINE
  5
C5
330
1F
100
AcDbEntity
  8
0
  6
Continuous
 62
     7
370
    15
100
AcDbSpline
210
0.0
220
0.0
230
1.0
 70
    24
 71
     3
 72
     8
 73
     4
 74
     0
 42
0.00000001
 43
0.00000001
 12
1.0
 22
0.0
 32
0.0
 13
1.0
 23
0.0
 33
0.0
 40
0.0
 40
0.0
 40
0.0
 40
0.0
 40
1.0
 40
1.0
 40
1.0
 40
1.0
 10
212.718754581873
 20
337.9378797576081
 30
0.0
 10
212.718754581873
 20
336.687728210141
 30
0.0
 10
212.718754581873
 20
335.4420720828668
 30
0.0
 10
212.718754581873
 20
334.1997845668212
 30
0.0
  0
ARC
  5
C6
330
1F
100
AcDbEntity
  8
0
  6
Continuous
 62
     7
370
    15
100
AcDbCircle
 10
201.8187545819
 20
339.2187486034
 30
0.0
 40
11.99999999999998
100
AcDbArc
 50
204.7239628407
 51
335.2760371593
  0
SPLINE
  5
C7
330
1F
100
AcDbEntity
  8
0
  6
Continuous
 62
     7
370
    15
100
AcDbSpline
210
0.0
220
0.0
230
1.0
 70
    24
 71
     3
 72
     8
 73
     4
 74
     0
 42
0.00000001
 43
0.00000001
 12
1.0
 22
0.0
 32
0.0
 13
1.0
 23
0.0
 33
0.0
 40
0.0
 40
0.0
 40
0.0
 40
0.0
 40
1.0
 40
1.0
 40
1.0
 40
1.0
 10
190.918754581873
 20
334.1997845668212
 30
0.0
 10
190.918754581873
 20
335.4421591792271
 30
0.0
 10
190.918754581873
 20
336.6878246360765
 30
0.0
 10
190.918754581873
 20
337.9378797576081
 30
0.0
  0
ARC
  5
C8
330
1F
100
AcDbEntity
  8
0
  6
Continuous
 62
     7
370
    15
100
AcDbCircle
 10
201.8187545819
 20
339.2187486034
 30
0.0
 40
12.0
100
AcDbArc
 50
24.7239628407
 51
155.2760371593
  0
SPLINE
  5
C9
330
1F
100
AcDbEntity
  8
0
  6
Continuous
 62
     7
370
    15
100
AcDbSpline
210
0.0
220
0.0
230
1.0
 70
    24
 71
     3
 72
     8
 73
     4
 74
     0
 42
0.00000001
 43
0.00000001
 12
1.0
 22
0.0
 32
0.0
 13
1.0
 23
0.0
 33
0.0
 40
0.0
 40
0.0
 40
0.0
 40
0.0
 40
1.0
 40
1.0
 40
1.0
 40
1.0
 10
212.718754581873
 20
344.2377126398849
 30
0.0
 10
212.718754581873
 20
342.9953380274789
 30
0.0
 10
212.718754581873
 20
341.7496725706295
 30
0.0
 10
212.718754581873
 20
340.499617449098
 30
0.0
  0
ARC
  5
CA
330
1F
100
AcDbEntity
  8
0
  6
Continuous
 62
     7
370
    15
100
AcDbCircle
 10
201.8187545819
 20
339.2187486034
 30
0.0
 40
10.97500000000001
100
AcDbArc
 50
6.7021420484
 51
173.2978579516
  0
SPLINE
  5
CB
330
1F
100
AcDbEntity
  8
0
  6
Continuous
 62
     7
370
    15
100
AcDbSpline
210
0.0
220
0.0
230
1.0
 70
    24
 71
     3
 72
     8
 73
     4
 74
     0
 42
0.00000001
 43
0.00000001
 12
1.0
 22
0.0
 32
0.0
 13
1.0
 23
0.0
 33
0.0
 40
0.0
 40
0.0
 40
0.0
 40
0.0
 40
1.0
 40
1.0
 40
1.0
 40
1.0
 10
190.918754581873
 20
340.499617449098
 30
0.0
 10
190.918754581873
 20
341.7497689965651
 30
0.0
 10
190.918754581873
 20
342.9954251238392
 30
0.0
 10
190.918754581873
 20
344.2377126398848
 30
0.0
  0
CIRCLE
  5
CC
330
1F
100
AcDbEntity
  8
0
  6
Continuous
 62
     7
370
    15
100
AcDbCircle
 10
201.8187545819
 20
339.2187486034
 30
0.0
 40
10.07500000000002
  0
LINE
  5
CD
330
1F
100
AcDbEntity
  8
0
  6
Continuous
 62
     7
370
    15
100
AcDbLine
 10
190.9187545819
 20
340.4996174491
 30
0.0
 11
190.9187545819
 21
337.9378797576
 31
0.0
  0
LINE
  5
CE
330
1F
100
AcDbEntity
  8
0
  6
Continuous
 62
     7
370
    15
100
AcDbLine
 10
212.7187545819
 20
337.9378797576
 30
0.0
 11
212.7187545819
 21
340.4996174491
 31
0.0
  0
CIRCLE
  5
CF
330
1F
100
AcDbEntity
  8
0
  6
Continuous
 62
     7
370
    15
100
AcDbCircle
 10
201.8187545819
 20
339.2187486034
 30
0.0
 40
9.900000000000006
  0
ARC
  5
D0
330
1F
100
AcDbEntity
  8
0
  6
Continuous
 62
     7
370
    15
100
AcDbCircle
 10
201.8187545819
 20
339.2187486034
 30
0.0
 40
12.0
100
AcDbArc
 50
335.2760371593
 51
24.7239628407
  0
ARC
  5
D1
330
1F
100
AcDbEntity
  8
0
  6
Continuous
 62
     7
370
    15
100
AcDbCircle
 10
201.8187545819
 20
339.2187486034
 30
0.0
 40
12.0
100
AcDbArc
 50
155.2760371593
 51
204.7239628407
  0
CIRCLE
  5
D2
330
1F
100
AcDbEntity
  8
0
  6
Continuous
 62
     7
370
    15
100
AcDbCircle
 10
201.8187545819
 20
339.2187486034
 30
0.0
 40
12.80000000000041
  0
CIRCLE
  5
D3
330
1F
100
AcDbEntity
  8
0
  6
Continuous
 62
     7
370
    15
100
AcDbCircle
 10
201.8187545819
 20
339.2187486034
 30
0.0
 40
13.50000000000003
  0
CIRCLE
  5
D4
330
1F
100
AcDbEntity
  8
0
  6
Continuous
 62
     7
370
    15
100
AcDbCircle
 10
201.8187545819
 20
394.2187486034
 30
0.0
 40
5.0
  0
CIRCLE
  5
D5
330
1F
100
AcDbEntity
  8
0
  6
Continuous
 62
     7
370
    15
100
AcDbCircle
 10
201.8187545819
 20
383.0187486034
 30
0.0
 40
3.569682227408606
  0
CIRCLE
  5
D6
330
1F
100
AcDbEntity
  8
0
  6
Continuous
 62
     7
370
    15
100
AcDbCircle
 10
201.8187545819
 20
383.0187486034
 30
0.0
 40
4.0
  0
LINE
  5
D7
330
1F
100
AcDbEntity
  8
0
  6
Continuous
 62
     7
370
    15
100
AcDbLine
 10
179.7899977864
 20
367.2187486034
 30
0.0
 11
223.8475113774
 21
367.2187486034
 31
0.0
  0
LINE
  5
D8
330
1F
100
AcDbEntity
  8
0
  6
Continuous
 62
     7
370
    15
100
AcDbLine
 10
179.3187545819
 20
277.2187486034
 30
0.0
 11
224.3187545819
 21
277.2187486034
 31
0.0
  0
LINE
  5
D9
330
1F
100
AcDbEntity
  8
0
  6
Continuous
 62
     7
370
    15
100
AcDbLine
 10
179.3187634708
 20
374.7187486034
 30
0.0
 11
224.318745693
 21
374.7187486034
 31
0.0
  0
LINE
  5
DA
330
1F
100
AcDbEntity
  8
0
  6
Continuous
 62
     7
370
    15
100
AcDbLine
 10
179.8587545819
 20
403.7187486034
 30
0.0
 11
223.7787545525
 21
403.7187486034
 31
0.0
  0
CIRCLE
  5
DB
330
1F
100
AcDbEntity
  8
0
  6
Continuous
 62
     8
370
     0
100
AcDbCircle
 10
201.8187545819
 20
394.2187486034
 30
0.0
 40
4.5
  0
SPLINE
  5
DC
330
1F
100
AcDbEntity
  8
0
  6
Continuous
 62
     8
370
     0
100
AcDbSpline
210
0.0
220
0.0
230
1.0
 70
     8
 71
     3
 72
   108
 73
   104
 74
     0
 42
0.00000001
 43
0.00000001
 12
1.0
 22
0.0
 32
0.0
 13
1.0
 23
0.0
 33
0.0
 40
-0.0156250000000001
 40
-0.0156250000000001
 40
0.0
 40
0.0
 40
0.0312500000000002
 40
0.0312500000000002
 40
0.0625000000000004
 40
0.0625000000000004
 40
0.0781250000000005
 40
0.0781250000000005
 40
0.0937500000000006
 40
0.0937500000000006
 40
0.1250000000000008
 40
0.1250000000000008
 40
0.1406250000000009
 40
0.1406250000000009
 40
0.156250000000001
 40
0.156250000000001
 40
0.1718750000000011
 40
0.1718750000000011
 40
0.1875000000000012
 40
0.1875000000000012
 40
0.2031250000000013
 40
0.2031250000000013
 40
0.2187500000000014
 40
0.2187500000000014
 40
0.2500000000000016
 40
0.2500000000000016
 40
0.2812500000000017
 40
0.2812500000000017
 40
0.2968750000000018
 40
0.2968750000000018
 40
0.3125000000000019
 40
0.3125000000000019
 40
0.3437500000000022
 40
0.3437500000000022
 40
0.3593750000000022
 40
0.3593750000000022
 40
0.3750000000000022
 40
0.3750000000000022
 40
0.4062500000000023
 40
0.4062500000000023
 40
0.4375000000000023
 40
0.4375000000000023
 40
0.4531250000000022
 40
0.4531250000000022
 40
0.4687500000000019
 40
0.4687500000000019
 40
0.5000000000000016
 40
0.5000000000000016
 40
0.5156250000000016
 40
0.5156250000000016
 40
0.5312500000000016
 40
0.5312500000000016
 40
0.5468750000000016
 40
0.5468750000000016
 40
0.5625000000000016
 40
0.5625000000000016
 40
0.5937500000000014
 40
0.5937500000000014
 40
0.6093750000000013
 40
0.6093750000000013
 40
0.6250000000000012
 40
0.6250000000000012
 40
0.6406250000000011
 40
0.6406250000000011
 40
0.656250000000001
 40
0.656250000000001
 40
0.6875000000000008
 40
0.6875000000000008
 40
0.6953125000000008
 40
0.6953125000000008
 40
0.7031250000000009
 40
0.7031250000000009
 40
0.7187500000000007
 40
0.7187500000000007
 40
0.7343750000000004
 40
0.7343750000000004
 40
0.7500000000000001
 40
0.7500000000000001
 40
0.78125
 40
0.78125
 40
0.7968749999999998
 40
0.7968749999999998
 40
0.8124999999999996
 40
0.8124999999999996
 40
0.8281249999999993
 40
0.8281249999999993
 40
0.8437499999999991
 40
0.8437499999999991
 40
0.874999999999999
 40
0.874999999999999
 40
0.8906249999999991
 40
0.8906249999999991
 40
0.9062499999999992
 40
0.9062499999999992
 40
0.9218749999999992
 40
0.9218749999999992
 40
0.9374999999999993
 40
0.9374999999999993
 40
0.9687499999999998
 40
0.9687499999999998
 40
0.9843749999999999
 40
0.9843749999999999
 40
1.0
 40
1.0
 40
1.03125
 40
1.03125
 10
214.0601822001024
 20
327.3977676182344
 30
0.0
 10
213.157504583019
 20
325.979209049939
 30
0.0
 10
212.479097529168
 20
325.0923395977285
 30
0.0
 10
210.9481421030641
 20
323.4542015523938
 30
0.0
 10
210.1089491207082
 20
322.716257060034
 30
0.0
 10
208.713421907956
 20
321.7489479272073
 30
0.0
 10
208.222804554522
 20
321.4488863222085
 30
0.0
 10
207.2027879641424
 20
320.9108087287823
 30
0.0
 10
206.6704149962519
 20
320.671509644133
 30
0.0
 10
205.0435465915243
 20
320.0679174197607
 30
0.0
 10
203.9123422542634
 20
319.8104688734928
 30
0.0
 10
202.1330824081248
 20
319.6768346095568
 30
0.0
 10
201.5414779021253
 20
319.6763065506901
 30
0.0
 10
200.3705485115713
 20
319.759907422932
 30
0.0
 10
199.7896369632063
 20
319.8439262004984
 30
0.0
 10
198.6368100063558
 20
320.0957715381816
 30
0.0
 10
198.0677944865488
 20
320.2638717120781
 30
0.0
 10
196.9796351073961
 20
320.6661378077617
 30
0.0
 10
196.4564151766252
 20
320.9008283342289
 30
0.0
 10
195.4468609483831
 20
321.4305357497533
 30
0.0
 10
194.9605509260594
 20
321.7255887330228
 30
0.0
 10
194.0218944435186
 20
322.3725145035696
 30
0.0
 10
193.5760404480756
 20
322.7200324000094
 30
0.0
 10
192.3081343785088
 20
323.8202745486896
 30
0.0
 10
191.5506106117522
 20
324.6328911212214
 30
0.0
 10
190.1814573842745
 20
326.4026978683464
 30
0.0
 10
189.5863371489249
 20
327.3388784874033
 30
0.0
 10
188.8074306881569
 20
328.8148930345758
 30
0.0
 10
188.5668928574324
 20
329.3191212840733
 30
0.0
 10
188.1226768012649
 20
330.3530432295578
 30
0.0
 10
187.9183482836094
 20
330.8847552689451
 30
0.0
 10
187.3659340828761
 20
332.504915640862
 30
0.0
 10
187.0783349340296
 20
333.614242197539
 30
0.0
 10
186.7649630043095
 20
335.3271979903678
 30
0.0
 10
186.6801006680968
 20
335.9087671298654
 30
0.0
 10
186.5526120545821
 20
337.0779988129586
 30
0.0
 10
186.5100715618806
 20
337.6631514857904
 30
0.0
 10
186.4447887583116
 20
339.4202365378139
 30
0.0
 10
186.4839781234157
 20
340.5948058144817
 30
0.0
 10
186.732782825022
 20
342.9442482327655
 30
0.0
 10
186.9389654457279
 20
344.0892778801083
 30
0.0
 10
187.3687410234618
 20
345.7671790053287
 30
0.0
 10
187.5329672338221
 20
346.3218201296079
 30
0.0
 10
187.8988388958276
 20
347.4054873709724
 30
0.0
 10
188.1004174833436
 20
347.935037582093
 30
0.0
 10
188.7617019536775
 20
349.4891340544363
 30
0.0
 10
189.2771570272963
 20
350.4795533713578
 30
0.0
 10
190.1776207765335
 20
351.8983503637227
 30
0.0
 10
190.498461010808
 20
352.3584773638052
 30
0.0
 10
191.175638052521
 20
353.2409737720999
 30
0.0
 10
191.5330578418414
 20
353.6651293681402
 30
0.0
 10
192.2889031774779
 20
354.4781323868444
 30
0.0
 10
192.6873042271997
 20
354.8669951912996
 30
0.0
 10
193.5304318671166
 20
355.6065575408149
 30
0.0
 10
193.9781176559141
 20
355.9592447993264
 30
0.0
 10
195.3775878560304
 20
356.9350891007957
 30
0.0
 10
196.3813627883845
 20
357.4776762302628
 30
0.0
 10
198.0220340042014
 20
358.0939599934551
 30
0.0
 10
198.588146824697
 20
358.2641060385563
 30
0.0
 10
199.7413474420483
 20
358.5218572904471
 30
0.0
 10
200.3211217659291
 20
358.6082933757786
 30
0.0
 10
201.4870024148636
 20
358.6969098621956
 30
0.0
 10
202.0731082342012
 20
358.6990964314426
 30
0.0
 10
203.2518582703879
 20
358.616474630498
 30
0.0
 10
203.8469808508115
 20
358.5301343915861
 30
0.0
 10
205.5677027657612
 20
358.1533279392675
 30
0.0
 10
206.6460245387449
 20
357.7489284830297
 30
0.0
 10
207.9221563673551
 20
357.079456329966
 30
0.0
 10
208.1734009273051
 20
356.9373228010944
 30
0.0
 10
208.6619781357395
 20
356.6411641216018
 30
0.0
 10
208.9002486358221
 20
356.4866627514083
 30
0.0
 10
209.5983061876688
 20
356.0050359833426
 30
0.0
 10
210.0414053580647
 20
355.6598626240738
 30
0.0
 10
210.8880011488214
 20
354.9252533900336
 30
0.0
 10
211.2923724866832
 20
354.5348305473321
 30
0.0
 10
212.0606213736812
 20
353.7155975747148
 30
0.0
 10
212.4212207638109
 20
353.2905208733653
 30
0.0
 10
213.4405530095348
 20
351.971847853816
 30
0.0
 10
214.0375066258029
 20
351.0353636390562
 30
0.0
 10
214.8243207939777
 20
349.5442734578743
 30
0.0
 10
215.068049928817
 20
349.0326935554857
 30
0.0
 10
215.5134316950545
 20
347.99477597156
 30
0.0
 10
215.7161009881268
 20
347.4666050424262
 30
0.0
 10
216.0828667633977
 20
346.3910946336411
 30
0.0
 10
216.2469601923995
 20
345.8437546686387
 30
0.0
 10
216.5366988269512
 20
344.7285843091602
 30
0.0
 10
216.6627401424781
 20
344.1582987153942
 30
0.0
 10
216.9778138828567
 20
342.4352402533021
 30
0.0
 10
217.1049986987144
 20
341.2716622233449
 30
0.0
 10
217.1710442535451
 20
339.5024938498368
 30
0.0
 10
217.1719102563569
 20
338.9071475630122
 30
0.0
 10
217.1314318765708
 20
337.7288548424332
 30
0.0
 10
217.0902930232077
 20
337.1436126468872
 30
0.0
 10
216.9668079043812
 20
335.9806456707242
 30
0.0
 10
216.8844630061488
 20
335.4029201185738
 30
0.0
 10
216.6780547679328
 20
334.2547451356115
 30
0.0
 10
216.5540903435049
 20
333.6858903127023
 30
0.0
 10
216.1257317498183
 20
332.0164132918116
 30
0.0
 10
215.764026498172
 20
330.9435395891063
 30
0.0
 10
215.1023083851483
 20
329.3881575195728
 30
0.0
 10
214.8610082614252
 20
328.8774979963931
 30
0.0
 10
214.3397574275672
 20
327.8821821790366
 30
0.0
 10
214.0601822001024
 20
327.3977676182344
 30
0.0
 10
213.157504583019
 20
325.979209049939
 30
0.0
  0
SPLINE
  5
DD
330
1F
100
AcDbEntity
  8
0
  6
Continuous
 62
     8
370
     0
100
AcDbSpline
210
0.0
220
0.0
230
1.0
 70
     8
 71
     3
 72
    88
 73
    84
 74
     0
 42
0.00000001
 43
0.00000001
 12
1.0
 22
0.0
 32
0.0
 13
1.0
 23
0.0
 33
0.0
 40
-0.031250000000001
 40
-0.031250000000001
 40
0.0
 40
0.0
 40
0.0312499999999993
 40
0.0312499999999993
 40
0.0468749999999989
 40
0.0468749999999989
 40
0.0624999999999986
 40
0.0624999999999986
 40
0.0937499999999978
 40
0.0937499999999978
 40
0.1093749999999979
 40
0.1093749999999979
 40
0.124999999999998
 40
0.124999999999998
 40
0.1562499999999983
 40
0.1562499999999983
 40
0.1874999999999985
 40
0.1874999999999985
 40
0.2031249999999986
 40
0.2031249999999986
 40
0.2187499999999987
 40
0.2187499999999987
 40
0.2499999999999987
 40
0.2499999999999987
 40
0.2812499999999987
 40
0.2812499999999987
 40
0.3124999999999987
 40
0.3124999999999987
 40
0.3437499999999987
 40
0.3437499999999987
 40
0.3593749999999988
 40
0.3593749999999988
 40
0.3749999999999988
 40
0.3749999999999988
 40
0.4062499999999989
 40
0.4062499999999989
 40
0.4374999999999989
 40
0.4374999999999989
 40
0.468749999999999
 40
0.468749999999999
 40
0.484374999999999
 40
0.484374999999999
 40
0.4999999999999991
 40
0.4999999999999991
 40
0.5312499999999992
 40
0.5312499999999992
 40
0.5624999999999992
 40
0.5624999999999992
 40
0.5937499999999993
 40
0.5937499999999993
 40
0.6249999999999993
 40
0.6249999999999993
 40
0.6562499999999994
 40
0.6562499999999994
 40
0.6718749999999996
 40
0.6718749999999996
 40
0.6874999999999996
 40
0.6874999999999996
 40
0.7187499999999993
 40
0.7187499999999993
 40
0.749999999999999
 40
0.749999999999999
 40
0.7812499999999988
 40
0.7812499999999988
 40
0.7968749999999986
 40
0.7968749999999986
 40
0.8124999999999983
 40
0.8124999999999983
 40
0.828124999999998
 40
0.828124999999998
 40
0.8437499999999978
 40
0.8437499999999978
 40
0.8749999999999979
 40
0.8749999999999979
 40
0.9062499999999979
 40
0.9062499999999979
 40
0.937499999999998
 40
0.937499999999998
 40
0.9531249999999986
 40
0.9531249999999986
 40
0.968749999999999
 40
0.968749999999999
 40
1.0
 40
1.0
 40
1.031249999999999
 40
1.031249999999999
 10
195.725004581873
 20
393.8010406317097
 30
0.0
 10
195.725004581873
 20
394.6364565749939
 30
0.0
 10
195.7624020758579
 20
395.0480916965186
 30
0.0
 10
195.8728432448383
 20
395.656756789384
 30
0.0
 10
195.9187775297336
 20
395.8581710612188
 30
0.0
 10
196.0293646702413
 20
396.2579896687962
 30
0.0
 10
196.0941293680789
 20
396.4563397020378
 30
0.0
 10
196.3129981148144
 20
397.0353736039659
 30
0.0
 10
196.492409022696
 20
397.4041444987927
 30
0.0
 10
196.8129212705673
 20
397.9312962643237
 30
0.0
 10
196.9290414571667
 20
398.1034846555925
 30
0.0
 10
197.1758695518041
 20
398.4339907511946
 30
0.0
 10
197.3063416099294
 20
398.5922038440829
 30
0.0
 10
197.7188547571562
 20
399.0460117723236
 30
0.0
 10
198.0217506923265
 20
399.3210095888012
 30
0.0
 10
198.6882765791745
 20
399.8121894806862
 30
0.0
 10
199.0430128796761
 20
400.0213852095714
 30
0.0
 10
199.6016471448766
 20
400.2771227986473
 30
0.0
 10
199.792622678982
 20
400.3528506515835
 30
0.0
 10
200.1845527377947
 20
400.4844854351422
 30
0.0
 10
200.3866925310526
 20
400.5405526465559
 30
0.0
 10
200.993732396472
 20
400.6739643453296
 30
0.0
 10
201.4026349085663
 20
400.7185311824782
 30
0.0
 10
202.2288827635638
 20
400.7189644533054
 30
0.0
 10
202.6485710747005
 20
400.6730784506665
 30
0.0
 10
203.4528594912071
 20
400.4959801299416
 30
0.0
 10
203.8430125921042
 20
400.3653333214762
 30
0.0
 10
204.5993975368287
 20
400.0192154487771
 30
0.0
 10
204.952977535618
 20
399.809423930554
 30
0.0
 10
205.4471705077326
 20
399.4452492499608
 30
0.0
 10
205.6059782261286
 20
399.3154623501698
 30
0.0
 10
205.9117788211083
 20
399.0389863333297
 30
0.0
 10
206.058710768086
 20
398.8921522872458
 30
0.0
 10
206.4727606713853
 20
398.4359946405181
 30
0.0
 10
206.7168582506207
 20
398.1082323989984
 30
0.0
 10
207.1438529296949
 20
397.4064431453928
 30
0.0
 10
207.3266336514374
 20
397.0303876801387
 30
0.0
 10
207.616811986836
 20
396.2614340183474
 30
0.0
 10
207.7266702800079
 20
395.8651501837132
 30
0.0
 10
207.8380858545555
 20
395.2526226676383
 30
0.0
 10
207.8661874467866
 20
395.0451447670916
 30
0.0
 10
207.9033031570295
 20
394.6317909190605
 30
0.0
 10
207.9125272205096
 20
394.4249641758124
 30
0.0
 10
207.91245917972
 20
393.8040382037737
 30
0.0
 10
207.8747362095717
 20
393.3856942699655
 30
0.0
 10
207.7264391364256
 20
392.5717518451567
 30
0.0
 10
207.616704975974
 20
392.1754477283699
 30
0.0
 10
207.3253805153801
 20
391.4041222396668
 30
0.0
 10
207.1423927283896
 20
391.0284051241226
 30
0.0
 10
206.7161573590801
 20
390.3283631359557
 30
0.0
 10
206.4717592104603
 20
389.999996564684
 30
0.0
 10
205.9160879443118
 20
389.3886245249519
 30
0.0
 10
205.6103856429604
 20
389.1124069766897
 30
0.0
 10
205.116788137478
 20
388.7488446368577
 30
0.0
 10
204.9460147812079
 20
388.6357810148143
 30
0.0
 10
204.5914036825198
 20
388.4265162699324
 30
0.0
 10
204.4063626996999
 20
388.329828928372
 30
0.0
 10
203.8422553633769
 20
388.0720623384435
 30
0.0
 10
203.4531934627828
 20
387.9416014783092
 30
0.0
 10
202.6485268394158
 20
387.7643981561749
 30
0.0
 10
202.2284822712948
 20
387.7185435098442
 30
0.0
 10
201.4033274184914
 20
387.7189551183817
 30
0.0
 10
200.9938573382036
 20
387.7633918247016
 30
0.0
 10
200.3843755253456
 20
387.8975108827448
 30
0.0
 10
200.1829986209644
 20
387.9534892830006
 30
0.0
 10
199.7919161080779
 20
388.0849285826551
 30
0.0
 10
199.600974810968
 20
388.1606418700648
 30
0.0
 10
199.22797472874
 20
388.3314787114298
 30
0.0
 10
199.0459166318788
 20
388.4266035495285
 30
0.0
 10
198.6906404649707
 20
388.6363091686914
 30
0.0
 10
198.5168731158371
 20
388.7514254416579
 30
0.0
 10
198.0200028591962
 20
389.1181700421185
 30
0.0
 10
197.7173587029726
 20
389.3928192472365
 30
0.0
 10
197.1659578104222
 20
390.0000448236414
 30
0.0
 10
196.9168612021888
 20
390.3348091168394
 30
0.0
 10
196.491485460351
 20
391.0353157860624
 30
0.0
 10
196.3121008824362
 20
391.4039346263425
 30
0.0
 10
196.0928495615646
 20
391.9848280043191
 30
0.0
 10
196.0281880795536
 20
392.1833922699377
 30
0.0
 10
195.9182068453039
 20
392.5817644475692
 30
0.0
 10
195.8724688531207
 20
392.7825745331925
 30
0.0
 10
195.7624148123628
 20
393.3897960979372
 30
0.0
 10
195.725004581873
 20
393.8010406317097
 30
0.0
 10
195.725004581873
 20
394.6364565749939
 30
0.0
  0
CIRCLE
  5
DE
330
1F
100
AcDbEntity
  8
0
  6
Continuous
 62
     8
370
     0
100
AcDbCircle
 10
201.8187545819
 20
383.0187486034
 30
0.0
 40
3.781418633081842
  0
SPLINE
  5
DF
330
1F
100
AcDbEntity
  8
0
  6
Continuous
 62
     7
370
    15
100
AcDbSpline
210
0.0
220
0.0
230
1.0
 70
     8
 71
     3
 72
    14
 73
    10
 74
     0
 42
0.00000001
 43
0.00000001
 12
1.0
 22
0.0
 32
0.0
 13
1.0
 23
0.0
 33
0.0
 40
0.0
 40
0.0
 40
0.0
 40
0.0
 40
0.0120555981166394
 40
0.2638867134923912
 40
0.4766702000136985
 40
0.6594815245709125
 40
0.8133647064030204
 40
0.9367492260373479
 40
1.0
 40
1.0
 40
1.0
 40
1.0
 10
206.822416707046
 20
178.5215540180574
 30
0.0
 10
206.8211913738585
 20
178.5284036732904
 30
0.0
 10
206.7943698802545
 20
178.6783367575308
 30
0.0
 10
206.8736315929547
 20
178.9572901943636
 30
0.0
 10
207.0186866873525
 20
179.2990764289312
 30
0.0
 10
207.2159584071535
 20
179.5524816164047
 30
0.0
 10
207.4164851961384
 20
179.7273166622408
 30
0.0
 10
207.5826206691275
 20
179.8341109199108
 30
0.0
 10
207.6809963911662
 20
179.8779199548376
 30
0.0
 10
207.7143359618238
 20
179.8927668539009
 30
0.0
  0
SPLINE
  5
E0
330
1F
100
AcDbEntity
  8
0
  6
Continuous
 62
     7
370
    15
100
AcDbSpline
210
0.0
220
0.0
230
1.0
 70
     8
 71
     3
 72
    13
 73
     9
 74
     0
 42
0.00000001
 43
0.00000001
 12
1.0
 22
0.0
 32
0.0
 13
1.0
 23
0.0
 33
0.0
 40
0.0
 40
0.0
 40
0.0
 40
0.0
 40
0.0210488454374876
 40
0.1546909550921369
 40
0.4694461754426492
 40
0.7092594019691438
 40
0.974694476754611
 40
1.0
 40
1.0
 40
1.0
 40
1.0
 10
195.9177446562947
 20
179.8959873935741
 30
0.0
 10
195.9289379196946
 20
179.8913684570156
 30
0.0
 10
196.0111988024146
 20
179.8574232361309
 30
0.0
 10
196.2454124489168
 20
179.7208201217659
 30
0.0
 10
196.5412636546864
 20
179.4400708623906
 30
0.0
 10
196.7486142990886
 20
179.0166603860772
 30
0.0
 10
196.8384440423777
 20
178.7094563597424
 30
0.0
 10
196.814236162288
 20
178.5437077351248
 30
0.0
 10
196.8121291532342
 20
178.5292812817792
 30
0.0
  0
LINE
  5
E1
330
1F
100
AcDbEntity
  8
0
  6
Continuous
 62
     7
370
    15
100
AcDbLine
 10
196.8187545819
 20
178.5217906821
 30
0.0
 11
196.8187545819
 21
117.1248207864
 31
0.0
  0
LINE
  5
E2
330
1F
100
AcDbEntity
  8
0
  6
Continuous
 62
     7
370
    15
100
AcDbLine
 10
206.8187545819
 20
117.1248207864
 30
0.0
 11
206.8187545819
 21
178.5201329629
 31
0.0
  0
ARC
  5
E3
330
1F
100
AcDbEntity
  8
0
  6
Continuous
 62
     7
370
    15
100
AcDbCircle
 10
206.3187545819
 20
117.1248207864
 30
0.0
 40
0.5
100
AcDbArc
 50
270.0
 51
0.0
  0
ARC
  5
E4
330
1F
100
AcDbEntity
  8
0
  6
Continuous
 62
     7
370
    15
100
AcDbCircle
 10
197.3187545819
 20
117.1248207864
 30
0.0
 40
0.5
100
AcDbArc
 50
180.0
 51
270.0
  0
SPLINE
  5
E5
330
1F
100
AcDbEntity
  8
0
  6
Continuous
 62
     7
370
    15
100
AcDbSpline
210
0.0
220
0.0
230
1.0
 70
     8
 71
     3
 72
    12
 73
     8
 74
     0
 42
0.00000001
 43
0.00000001
 12
1.0
 22
0.0
 32
0.0
 13
1.0
 23
0.0
 33
0.0
 40
0.0
 40
0.0
 40
0.0
 40
0.0
 40
0.241204527028466
 40
0.4779441318192769
 40
0.6980328281054843
 40
0.8988752002998704
 40
1.0
 40
1.0
 40
1.0
 40
1.0
 10
215.3165172048236
 20
181.2853185278349
 30
0.0
 10
215.3257154752853
 20
181.5448263483924
 30
0.0
 10
215.3439417475873
 20
182.0590382561234
 30
0.0
 10
215.4953201810689
 20
182.7975175444598
 30
0.0
 10
215.7171742999481
 20
183.4686795407011
 30
0.0
 10
215.9460390595723
 20
183.9831562554148
 30
0.0
 10
216.1132056792123
 20
184.2580923154665
 30
0.0
 10
216.1691875623474
 20
184.3501647544294
 30
0.0
  0
SPLINE
  5
E6
330
1F
100
AcDbEntity
  8
0
  6
Continuous
 62
     7
370
    15
100
AcDbSpline
210
0.0
220
0.0
230
1.0
 70
     8
 71
     3
 72
    13
 73
     9
 74
     0
 42
0.00000001
 43
0.00000001
 12
1.0
 22
0.0
 32
0.0
 13
1.0
 23
0.0
 33
0.0
 40
0.0
 40
0.0
 40
0.0
 40
0.0
 40
0.0754958204104664
 40
0.2601588471849807
 40
0.4933077913977455
 40
0.7298370939702958
 40
0.9872232269345282
 40
1.0
 40
1.0
 40
1.0
 40
1.0
 10
187.3729369537417
 20
184.5056289684199
 30
0.0
 10
187.4189502337084
 20
184.4359521323998
 30
0.0
 10
187.5775121488745
 20
184.1958455246969
 30
0.0
 10
187.829656149253
 20
183.6885812091091
 30
0.0
 10
188.0955945126534
 20
182.9883544679233
 30
0.0
 10
188.2668670608296
 20
182.1737767265809
 30
0.0
 10
188.344158491088
 20
181.5921634654191
 30
0.0
 10
188.3208323602007
 20
181.2836084471834
 30
0.0
 10
188.3197292010542
 20
181.2690160018172
 30
0.0
  0
LINE
  5
E7
330
1F
100
AcDbEntity
  8
0
  6
Continuous
 62
     7
370
    15
100
AcDbLine
 10
188.3187545819
 20
181.2672501147
 30
0.0
 11
188.3187545819
 21
116.6248207864
 31
0.0
  0
LINE
  5
E8
330
1F
100
AcDbEntity
  8
0
  6
Continuous
 62
     7
370
    15
100
AcDbLine
 10
215.3187545819
 20
116.6248207864
 30
0.0
 11
215.3187545819
 21
181.2859065223
 31
0.0
  0
LINE
  5
E9
330
1F
100
AcDbEntity
  8
0
  6
Continuous
 62
     7
370
    15
100
AcDbLine
 10
189.0187545819
 20
107.4612825046
 30
0.0
 11
189.0187545819
 21
100.9612825046
 31
0.0
  0
LINE
  5
EA
330
1F
100
AcDbEntity
  8
0
  6
Continuous
 62
     7
370
    15
100
AcDbLine
 10
214.6187545819
 20
100.9612825046
 30
0.0
 11
214.6187545819
 21
107.4612825046
 31
0.0
  0
LINE
  5
EB
330
1F
100
AcDbEntity
  8
0
  6
Continuous
 62
     7
370
    15
100
AcDbLine
 10
213.8187545819
 20
109.7112825046
 30
0.0
 11
213.0687545819
 21
110.4612825046
 31
0.0
  0
LINE
  5
EC
330
1F
100
AcDbEntity
  8
0
  6
Continuous
 62
     7
370
    15
100
AcDbLine
 10
190.5687545819
 20
110.4612825046
 30
0.0
 11
189.8187545819
 21
109.7112825046
 31
0.0
  0
LINE
  5
ED
330
1F
100
AcDbEntity
  8
0
  6
Continuous
 62
     7
370
    15
100
AcDbLine
 10
213.8187545819
 20
97.0612825046
 30
0.0
 11
213.8187545819
 21
100.9612825046
 31
0.0
  0
LINE
  5
EE
330
1F
100
AcDbEntity
  8
0
  6
Continuous
 62
     7
370
    15
100
AcDbLine
 10
189.8187545819
 20
100.9612825046
 30
0.0
 11
189.8187545819
 21
97.0612825046
 31
0.0
  0
LINE
  5
EF
330
1F
100
AcDbEntity
  8
0
  6
Continuous
 62
     7
370
    15
100
AcDbLine
 10
190.5687545819
 20
116.6248207864
 30
0.0
 11
190.5687545819
 21
110.4612825046
 31
0.0
  0
LINE
  5
F0
330
1F
100
AcDbEntity
  8
0
  6
Continuous
 62
     7
370
    15
100
AcDbLine
 10
213.0687545819
 20
110.4612825046
 30
0.0
 11
213.0687545819
 21
116.6248207864
 31
0.0
  0
LINE
  5
F1
330
1F
100
AcDbEntity
  8
0
  6
Continuous
 62
     7
370
    15
100
AcDbLine
 10
199.8187545819
 20
246.6783554268
 30
0.0
 11
199.8187545819
 21
233.6783554268
 31
0.0
  0
LINE
  5
F2
330
1F
100
AcDbEntity
  8
0
  6
Continuous
 62
     7
370
    15
100
AcDbLine
 10
203.8187545819
 20
233.6783554268
 30
0.0
 11
203.8187545819
 21
246.6783554268
 31
0.0
  0
LINE
  5
F3
330
1F
100
AcDbEntity
  8
0
  6
Continuous
 62
     7
370
    15
100
AcDbLine
 10
203.8187545819
 20
229.9195849436
 30
0.0
 11
203.8187545819
 21
233.6783554268
 31
0.0
  0
LINE
  5
F4
330
1F
100
AcDbEntity
  8
0
  6
Continuous
 62
     7
370
    15
100
AcDbLine
 10
199.8187545819
 20
233.6783554268
 30
0.0
 11
199.8187545819
 21
229.9195849436
 31
0.0
  0
LINE
  5
F5
330
1F
100
AcDbEntity
  8
0
  6
Continuous
 62
     7
370
    15
100
AcDbLine
 10
199.8187545819
 20
229.9195849436
 30
0.0
 11
199.8187545819
 21
224.0357556174
 31
0.0
  0
LINE
  5
F6
330
1F
100
AcDbEntity
  8
0
  6
Continuous
 62
     7
370
    15
100
AcDbLine
 10
203.8187545819
 20
224.0357556174
 30
0.0
 11
203.8187545819
 21
229.9195849436
 31
0.0
  0
CIRCLE
  5
F7
330
1F
100
AcDbEntity
  8
0
  6
Continuous
 62
     7
370
    15
100
AcDbCircle
 10
201.8187545819
 20
201.6248207864
 30
0.0
 40
22.50000000000003
  0
LINE
  5
F8
330
1F
100
AcDbEntity
  8
0
  6
Continuous
 62
     7
370
    15
100
AcDbLine
 10
206.3187545819
 20
116.6248207864
 30
0.0
 11
197.3187551239
 21
116.6248207864
 31
0.0
  0
LINE
  5
F9
330
1F
100
AcDbEntity
  8
0
  6
Continuous
 62
     7
370
    15
100
AcDbLine
 10
205.7719178722
 20
179.4748207864
 30
0.0
 11
205.8187545819
 21
179.4748207864
 31
0.0
  0
LINE
  5
FA
330
1F
100
AcDbEntity
  8
0
  6
Continuous
 62
     7
370
    15
100
AcDbLine
 10
215.3187545819
 20
116.6248207864
 30
0.0
 11
206.3187545819
 21
116.6248207864
 31
0.0
  0
LINE
  5
FB
330
1F
100
AcDbEntity
  8
0
  6
Continuous
 62
     7
370
    15
100
AcDbLine
 10
197.3187545819
 20
116.6248207864
 30
0.0
 11
188.3187545819
 21
116.6248207864
 31
0.0
  0
LINE
  5
FC
330
1F
100
AcDbEntity
  8
0
  6
Continuous
 62
     7
370
    15
100
AcDbLine
 10
201.8187545819
 20
100.9612825046
 30
0.0
 11
214.6187545819
 21
100.9612825046
 31
0.0
  0
LINE
  5
FD
330
1F
100
AcDbEntity
  8
0
  6
Continuous
 62
     7
370
    15
100
AcDbLine
 10
189.0187545819
 20
100.9612825046
 30
0.0
 11
201.8187545819
 21
100.9612825046
 31
0.0
  0
LINE
  5
FE
330
1F
100
AcDbEntity
  8
0
  6
Continuous
 62
     7
370
    15
100
AcDbLine
 10
189.8187545819
 20
108.9112825046
 30
0.0
 11
189.8187545819
 21
107.4612825046
 31
0.0
  0
LINE
  5
FF
330
1F
100
AcDbEntity
  8
0
  6
Continuous
 62
     7
370
    15
100
AcDbLine
 10
189.8187545819
 20
108.9112825046
 30
0.0
 11
213.8187545819
 21
108.9112825046
 31
0.0
  0
LINE
  5
100
330
1F
100
AcDbEntity
  8
0
  6
Continuous
 62
     7
370
    15
100
AcDbLine
 10
213.8187545819
 20
107.4612825046
 30
0.0
 11
213.8187545819
 21
108.9112825046
 31
0.0
  0
LINE
  5
101
330
1F
100
AcDbEntity
  8
0
  6
Continuous
 62
     7
370
    15
100
AcDbLine
 10
213.8187545819
 20
107.4612825046
 30
0.0
 11
214.6187545819
 21
107.4612825046
 31
0.0
  0
LINE
  5
102
330
1F
100
AcDbEntity
  8
0
  6
Continuous
 62
     7
370
    15
100
AcDbLine
 10
189.0187545819
 20
107.4612825046
 30
0.0
 11
189.8187545819
 21
107.4612825046
 31
0.0
  0
SPLINE
  5
103
330
1F
100
AcDbEntity
  8
0
  6
Continuous
 62
     7
370
    15
100
AcDbSpline
210
0.0
220
0.0
230
1.0
 70
    24
 71
     3
 72
     9
 73
     5
 74
     0
 42
0.00000001
 43
0.00000001
 12
1.0
 22
0.0
 32
0.0
 13
1.0
 23
0.0
 33
0.0
 40
0.0
 40
0.0
 40
0.0
 40
0.0
 40
0.6923767617430231
 40
1.0
 40
1.0
 40
1.0
 40
1.0
 10
213.818754581873
 20
108.9112825045876
 30
0.0
 10
213.818754581873
 20
109.2190678797169
 30
0.0
 10
213.818754581873
 20
109.6636024050444
 30
0.0
 10
213.818754581873
 20
109.6825938576686
 30
0.0
 10
213.818754581873
 20
109.688436069824
 30
0.0
  0
SPLINE
  5
104
330
1F
100
AcDbEntity
  8
0
  6
Continuous
 62
     7
370
    15
100
AcDbSpline
210
0.0
220
0.0
230
1.0
 70
    24
 71
     3
 72
     9
 73
     5
 74
     0
 42
0.00000001
 43
0.00000001
 12
1.0
 22
0.0
 32
0.0
 13
1.0
 23
0.0
 33
0.0
 40
0.0
 40
0.0
 40
0.0
 40
0.0
 40
0.3076054983383966
 40
1.0
 40
1.0
 40
1.0
 40
1.0
 10
189.8187545818729
 20
109.6861176343612
 30
0.0
 10
189.8187545818729
 20
109.6811649557987
 30
0.0
 10
189.8187545818728
 20
109.66506420796
 30
0.0
 10
189.8187545818729
 20
109.2196705939812
 30
0.0
 10
189.818754581873
 20
108.911282504587
 30
0.0
  0
LINE
  5
105
330
1F
100
AcDbEntity
  8
0
  6
Continuous
 62
     7
370
    15
100
AcDbLine
 10
201.8187545819
 20
110.4612825046
 30
0.0
 11
213.0687545819
 21
110.4612825046
 31
0.0
  0
LINE
  5
106
330
1F
100
AcDbEntity
  8
0
  6
Continuous
 62
     7
370
    15
100
AcDbLine
 10
190.5687545819
 20
110.4612825046
 30
0.0
 11
201.8187545819
 21
110.4612825046
 31
0.0
  0
LINE
  5
107
330
1F
100
AcDbEntity
  8
0
  6
Continuous
 62
     7
370
    15
100
AcDbLine
 10
212.7187545819
 20
97.0612825046
 30
0.0
 11
213.8187545819
 21
97.0612825046
 31
0.0
  0
LINE
  5
108
330
1F
100
AcDbEntity
  8
0
  6
Continuous
 62
     7
370
    15
100
AcDbLine
 10
212.7187545819
 20
97.0612825046
 30
0.0
 11
212.7187545819
 21
93.2420176598
 31
0.0
  0
LINE
  5
109
330
1F
100
AcDbEntity
  8
0
  6
Continuous
 62
     7
370
    15
100
AcDbLine
 10
212.7187545819
 20
93.2420176598
 30
0.0
 11
190.9187545819
 21
93.2420176598
 31
0.0
  0
LINE
  5
10A
330
1F
100
AcDbEntity
  8
0
  6
Continuous
 62
     7
370
    15
100
AcDbLine
 10
190.9187545819
 20
93.2420176598
 30
0.0
 11
190.9187545819
 21
97.0612825046
 31
0.0
  0
LINE
  5
10B
330
1F
100
AcDbEntity
  8
0
  6
Continuous
 62
     7
370
    15
100
AcDbLine
 10
189.8187545819
 20
97.0612825046
 30
0.0
 11
190.9187545819
 21
97.0612825046
 31
0.0
  0
SPLINE
  5
10C
330
1F
100
AcDbEntity
  8
0
  6
Continuous
 62
     7
370
    15
100
AcDbSpline
210
0.0
220
0.0
230
1.0
 70
    24
 71
     3
 72
     8
 73
     4
 74
     0
 42
0.00000001
 43
0.00000001
 12
1.0
 22
0.0
 32
0.0
 13
1.0
 23
0.0
 33
0.0
 40
0.0
 40
0.0
 40
0.0
 40
0.0
 40
1.0
 40
1.0
 40
1.0
 40
1.0
 10
212.718754581873
 20
93.24201765981324
 30
0.0
 10
212.718754581873
 20
93.15039472961433
 30
0.0
 10
212.718754581873
 20
93.0870070712942
 30
0.0
 10
212.718754581873
 20
93.06128250458706
 30
0.0
  0
LINE
  5
10D
330
1F
100
AcDbEntity
  8
0
  6
Continuous
 62
     7
370
    15
100
AcDbLine
 10
212.7187545819
 20
93.0612825046
 30
0.0
 11
190.9187545819
 21
93.0612825046
 31
0.0
  0
SPLINE
  5
10E
330
1F
100
AcDbEntity
  8
0
  6
Continuous
 62
     7
370
    15
100
AcDbSpline
210
0.0
220
0.0
230
1.0
 70
    24
 71
     3
 72
     8
 73
     4
 74
     0
 42
0.00000001
 43
0.00000001
 12
1.0
 22
0.0
 32
0.0
 13
1.0
 23
0.0
 33
0.0
 40
0.0
 40
0.0
 40
0.0
 40
0.0
 40
1.0
 40
1.0
 40
1.0
 40
1.0
 10
190.918754581873
 20
93.06128250458706
 30
0.0
 10
190.918754581873
 20
93.08700905561902
 30
0.0
 10
190.918754581873
 20
93.15040115281687
 30
0.0
 10
190.918754581873
 20
93.24201765981324
 30
0.0
  0
LINE
  5
10F
330
1F
100
AcDbEntity
  8
0
  6
Continuous
 62
     7
370
    15
100
AcDbLine
 10
199.8187545819
 20
246.6783554268
 30
0.0
 11
203.8187545819
 21
246.6783554268
 31
0.0
  0
CIRCLE
  5
110
330
1F
100
AcDbEntity
  8
0
  6
Continuous
 62
     8
370
     0
100
AcDbCircle
 10
201.8187545819
 20
201.6248207864
 30
0.0
 40
21.96000000000001
  0
LINE
  5
111
330
1F
100
AcDbEntity
  8
0
  6
Continuous
 62
     8
370
     0
100
AcDbLine
 10
196.8187545819
 20
117.1248207864
 30
0.0
 11
206.8187545819
 21
117.1248207864
 31
0.0
  0
SPLINE
  5
112
330
1F
100
AcDbEntity
  8
0
  6
Continuous
 62
     8
370
     0
100
AcDbSpline
210
0.0
220
0.0
230
1.0
 70
     8
 71
     3
 72
    26
 73
    22
 74
     0
 42
0.00000001
 43
0.00000001
 12
1.0
 22
0.0
 32
0.0
 13
1.0
 23
0.0
 33
0.0
 40
0.0
 40
0.0
 40
0.0
 40
0.0
 40
0.0045683344081564
 40
0.047200489353952
 40
0.0905917663180241
 40
0.1343565079119459
 40
0.1788446263095053
 40
0.2006592923074204
 40
0.2634163740815882
 40
0.3267646362746336
 40
0.3915888002858023
 40
0.4567949498374699
 40
0.5266295295836276
 40
0.5968109544836082
 40
0.6680346490202007
 40
0.739623468024938
 40
0.7984725519109002
 40
0.857577156847754
 40
0.9175784768687753
 40
0.9779438563066517
 40
1.0
 40
1.0
 40
1.0
 40
1.0
 10
215.3172735205316
 20
181.2852702035875
 30
0.0
 10
215.3177755995986
 20
181.2862461530367
 30
0.0
 10
215.3229631308824
 20
181.2963297606428
 30
0.0
 10
215.2990166750016
 20
181.2687290549913
 30
0.0
 10
215.2343701177785
 20
181.1875298288858
 30
0.0
 10
215.1235568872603
 20
181.044444457903
 30
0.0
 10
214.9982065235579
 20
180.8831539867275
 30
0.0
 10
214.8236848718226
 20
180.6612564481353
 30
0.0
 10
214.5850061225262
 20
180.36295601721
 30
0.0
 10
214.210288440814
 20
179.9134746712087
 30
0.0
 10
213.7680890013395
 20
179.4098199427536
 30
0.0
 10
213.2498087335941
 20
178.8546466544923
 30
0.0
 10
212.6551694908608
 20
178.2619235667214
 30
0.0
 10
211.9780514516973
 20
177.6414423844596
 30
0.0
 10
211.2293493116134
 20
177.0176436167272
 30
0.0
 10
210.4569172749606
 20
176.4398943896692
 30
0.0
 10
209.6754798047282
 20
175.9178778257863
 30
0.0
 10
208.8950337763442
 20
175.4514953126564
 30
0.0
 10
208.0571059124969
 20
175.0165858796213
 30
0.0
 10
207.3613562183188
 20
174.6950648920064
 30
0.0
 10
206.9333025041748
 20
174.5377349963299
 30
0.0
 10
206.818754581873
 20
174.4956332411758
 30
0.0
  0
SPLINE
  5
113
330
1F
100
AcDbEntity
  8
0
  6
Continuous
 62
     8
370
     0
100
AcDbSpline
210
0.0
220
0.0
230
1.0
 70
     8
 71
     3
 72
    24
 73
    20
 74
     0
 42
0.00000001
 43
0.00000001
 12
1.0
 22
0.0
 32
0.0
 13
1.0
 23
0.0
 33
0.0
 40
0.0
 40
0.0
 40
0.0
 40
0.0
 40
0.0100812824214733
 40
0.0675543283947114
 40
0.1280656086805261
 40
0.200368808588465
 40
0.2731721036229842
 40
0.347355655922332
 40
0.4219544359030138
 40
0.4921421293261811
 40
0.5626781821543905
 40
0.6344300591807085
 40
0.7067032942369501
 40
0.7545399270540528
 40
0.8026327295617033
 40
0.8516923472960011
 40
0.9011746828529186
 40
0.9782069252718334
 40
1.0
 40
1.0
 40
1.0
 40
1.0
 10
196.818754581873
 20
174.4935508953047
 30
0.0
 10
196.7660653517226
 20
174.5121717612028
 30
0.0
 10
196.41299662419
 20
174.63694954614
 30
0.0
 10
195.7838663516944
 20
174.9213727858346
 30
0.0
 10
194.8835940318051
 20
175.3701290960831
 30
0.0
 10
193.9765019044669
 20
175.9043645980404
 30
0.0
 10
193.0793841634609
 20
176.509668369239
 30
0.0
 10
192.2456536159256
 20
177.1467974828551
 30
0.0
 10
191.4930974420306
 20
177.7883350998503
 30
0.0
 10
190.8210679374788
 20
178.417949706138
 30
0.0
 10
190.2236408023136
 20
179.0254918880073
 30
0.0
 10
189.6895114538185
 20
179.6101162167614
 30
0.0
 10
189.2782125452773
 20
180.0902545018255
 30
0.0
 10
188.9707470231422
 20
180.4648839939517
 30
0.0
 10
188.7454788898041
 20
180.7473387584446
 30
0.0
 10
188.5600574190592
 20
180.9849379195541
 30
0.0
 10
188.4022156876987
 20
181.1885443837722
 30
0.0
 10
188.3107730477833
 20
181.3061612596889
 30
0.0
 10
188.3289741810571
 20
181.2749487219567
 30
0.0
 10
188.3329879162924
 20
181.2680656965651
 30
0.0
  0
ENDSEC
  0
SECTION
  2
OBJECTS
  0
DICTIONARY
  5
C
330
0
100
AcDbDictionary
281
     1
  3
ACAD_GROUP
350
D
  3
ACAD_LAYOUT
350
1A
  3
ACAD_MATERIAL
350
3B
  3
ACAD_MLEADERSTYLE
350
115
  3
ACAD_MLINESTYLE
350
17
  3
ACAD_PLOTSETTINGS
350
19
  3
ACAD_PLOTSTYLENAME
350
E
  3
ACAD_TABLESTYLE
350
114
  3
ACAD_VISUALSTYLE
350
2A
  0
DICTIONARY
  5
D
102
{ACAD_REACTORS
330
C
102
}
330
C
100
AcDbDictionary
281
     1
  0
DICTIONARY
  5
1A
102
{ACAD_REACTORS
330
C
102
}
330
C
100
AcDbDictionary
281
     1
  3
Layout1
350
1E
  3
Layout2
350
26
  3
Model
350
22
  0
DICTIONARY
  5
3B
102
{ACAD_REACTORS
330
C
102
}
330
C
100
AcDbDictionary
281
     1
  3
ByBlock
350
3D
  3
ByLayer
350
3C
  3
Global
350
3E
  0
DICTIONARY
  5
115
102
{ACAD_REACTORS
330
C
102
}
330
C
100
AcDbDictionary
281
     1
  0
DICTIONARY
  5
17
102
{ACAD_REACTORS
330
C
102
}
330
C
100
AcDbDictionary
281
     1
  3
Standard
350
18
  0
DICTIONARY
  5
19
102
{ACAD_REACTORS
330
C
102
}
330
C
100
AcDbDictionary
281
     1
  0
ACDBDICTIONARYWDFLT
  5
E
102
{ACAD_REACTORS
330
C
102
}
330
C
100
AcDbDictionary
281
     1
  3
Normal
350
F
100
AcDbDictionaryWithDefault
340
F
  0
DICTIONARY
  5
114
102
{ACAD_REACTORS
330
C
102
}
330
C
100
AcDbDictionary
281
     1
  0
DICTIONARY
  5
2A
102
{ACAD_REACTORS
330
C
102
}
330
C
100
AcDbDictionary
281
     1
  3
2dWireframe
350
2F
  3
3D Hidden
350
31
  3
3dWireframe
350
30
  3
Basic
350
32
  3
Brighten
350
36
  3
ColorChange
350
3A
  3
Conceptual
350
34
  3
Dim
350
35
  3
Facepattern
350
39
  3
Flat
350
2B
  3
FlatWithEdges
350
2C
  3
Gouraud
350
2D
  3
GouraudWithEdges
350
2E
  3
Linepattern
350
38
  3
Realistic
350
33
  3
Thicken
350
37
  0
LAYOUT
  5
1E
102
{ACAD_REACTORS
330
1A
102
}
330
1A
100
AcDbPlotSettings
  1

  2
none_device
  4

  6

 40
0.0
 41
0.0
 42
0.0
 43
0.0
 44
0.0
 45
0.0
 46
0.0
 47
0.0
 48
0.0
 49
0.0
140
0.0
141
0.0
142
1.0
143
1.0
 70
   688
 72
     0
 73
     0
 74
     5
  7

 75
    16
 76
     0
 77
     2
 78
   300
147
1.0
148
0.0
149
0.0
100
AcDbLayout
  1
Layout1
 70
     1
 71
     1
 10
0.0
 20
0.0
 11
420.0
 21
297.0
 12
0.0
 22
0.0
 32
0.0
 14
1.0000000000E+20
 24
1.0000000000E+20
 34
1.0000000000E+20
 15
-1.0000000000E+20
 25
-1.0000000000E+20
 35
-1.0000000000E+20
146
0.0
 13
0.0
 23
0.0
 33
0.0
 16
1.0
 26
0.0
 36
0.0
 17
0.0
 27
1.0
 37
0.0
 76
     0
330
1B
  0
LAYOUT
  5
26
102
{ACAD_REACTORS
330
1A
102
}
330
1A
100
AcDbPlotSettings
  1

  2
none_device
  4

  6

 40
0.0
 41
0.0
 42
0.0
 43
0.0
 44
0.0
 45
0.0
 46
0.0
 47
0.0
 48
0.0
 49
0.0
140
0.0
141
0.0
142
1.0
143
1.0
 70
   688
 72
     0
 73
     0
 74
     5
  7

 75
    16
 76
     0
 77
     2
 78
   300
147
1.0
148
0.0
149
0.0
100
AcDbLayout
  1
Layout2
 70
     1
 71
     2
 10
0.0
 20
0.0
 11
0.0
 21
0.0
 12
0.0
 22
0.0
 32
0.0
 14
0.0
 24
0.0
 34
0.0
 15
0.0
 25
0.0
 35
0.0
146
0.0
 13
0.0
 23
0.0
 33
0.0
 16
1.0
 26
0.0
 36
0.0
 17
0.0
 27
1.0
 37
0.0
 76
     0
330
23
  0
LAYOUT
  5
22
102
{ACAD_REACTORS
330
1A
102
}
330
1A
100
AcDbPlotSettings
  1

  2
none_device
  4

  6

 40
0.0
 41
0.0
 42
0.0
 43
0.0
 44
0.0
 45
0.0
 46
0.0
 47
0.0
 48
0.0
 49
0.0
140
0.0
141
0.0
142
1.0
143
1.0
 70
  1712
 72
     0
 73
     0
 74
     0
  7

 75
     0
 76
     0
 77
     2
 78
   300
147
1.0
148
0.0
149
0.0
100
AcDbLayout
  1
Model
 70
     1
 71
     0
 10
0.0
 20
0.0
 11
594.0
 21
841.0
 12
0.0
 22
0.0
 32
0.0
 14
0.0
 24
0.0
 34
0.0
 15
594.0
 25
841.0
 35
0.0
146
0.0
 13
0.0
 23
0.0
 33
0.0
 16
1.0
 26
0.0
 36
0.0
 17
0.0
 27
1.0
 37
0.0
 76
     0
330
1F
331
29
  0
MATERIAL
  5
3D
102
{ACAD_REACTORS
330
3B
102
}
330
3B
100
AcDbMaterial
  1
ByBlock
 72
     1
 94
      127
  0
MATERIAL
  5
3C
102
{ACAD_REACTORS
330
3B
102
}
330
3B
100
AcDbMaterial
  1
ByLayer
 72
     1
 94
      127
  0
MATERIAL
  5
3E
102
{ACAD_REACTORS
330
3B
102
}
330
3B
100
AcDbMaterial
  1
Global
 72
     1
 94
      127
  0
MLINESTYLE
  5
18
102
{ACAD_REACTORS
330
17
102
}
330
17
100
AcDbMlineStyle
  2
Standard
 70
     0
  3

 62
   256
 51
90.0
 52
90.0
 71
     2
 49
0.5
 62
   256
  6
BYLAYER
 49
-0.5
 62
   256
  6
BYLAYER
  0
ACDBPLACEHOLDER
  5
F
102
{ACAD_REACTORS
330
E
102
}
330
E
  0
VISUALSTYLE
  5
2F
102
{ACAD_REACTORS
330
2A
102
}
330
2A
100
AcDbVisualStyle
  2
2dWireframe
 70
     4
177
     2
291
     0
 71
     0
176
     1
 72
     2
176
     1
 73
     0
176
     1
 90
        0
176
     1
 40
-0.6
176
     1
 41
-30.0
176
     1
 62
     5
 63
     7
421
 16777215
176
     1
 74
     1
176
     1
 91
        4
176
     1
 64
     7
176
     1
 65
   257
176
     1
 75
     1
176
     1
175
     1
176
     1
 42
1.0
176
     1
 92
        0
176
     1
 66
   257
176
     1
 43
1.0
176
     1
 76
     1
176
     1
 77
     6
176
     1
 78
     2
176
     1
 67
     7
176
     1
 79
     5
176
     1
170
     0
176
     1
171
     0
176
     1
290
     0
176
     1
 93
        1
176
     1
 44
0.0
176
     1
173
     0
176
     1
  0
VISUALSTYLE
  5
31
102
{ACAD_REACTORS
330
2A
102
}
330
2A
100
AcDbVisualStyle
  2
3D Hidden
 70
     6
177
     2
291
     0
 71
     1
176
     1
 72
     2
176
     1
 73
     2
176
     1
 90
        0
176
     1
 40
-0.6
176
     1
 41
-30.0
176
     1
 62
     5
 63
     7
421
 16777215
176
     1
 74
     2
176
     1
 91
        2
176
     1
 64
     7
176
     1
 65
   257
176
     1
 75
     2
176
     1
175
     1
176
     1
 42
40.0
176
     1
 92
        0
176
     1
 66
   257
176
     1
 43
1.0
176
     1
 76
     1
176
     1
 77
     6
176
     1
 78
     2
176
     1
 67
     7
176
     1
 79
     3
176
     1
170
     0
176
     1
171
     0
176
     1
290
     0
176
     1
 93
        1
176
     1
 44
0.0
176
     1
173
     0
176
     1
  0
VISUALSTYLE
  5
30
102
{ACAD_REACTORS
330
2A
102
}
330
2A
100
AcDbVisualStyle
  2
3dWireframe
 70
     5
177
     2
291
     0
 71
     0
176
     1
 72
     2
176
     1
 73
     0
176
     1
 90
        0
176
     1
 40
-0.6
176
     1
 41
-30.0
176
     1
 62
     5
 63
     7
421
 16777215
176
     1
 74
     1
176
     1
 91
        4
176
     1
 64
     7
176
     1
 65
   257
176
     1
 75
     1
176
     1
175
     1
176
     1
 42
1.0
176
     1
 92
        0
176
     1
 66
   257
176
     1
 43
1.0
176
     1
 76
     1
176
     1
 77
     6
176
     1
 78
     2
176
     1
 67
     7
176
     1
 79
     5
176
     1
170
     0
176
     1
171
     0
176
     1
290
     0
176
     1
 93
        1
176
     1
 44
0.0
176
     1
173
     0
176
     1
  0
VISUALSTYLE
  5
32
102
{ACAD_REACTORS
330
2A
102
}
330
2A
100
AcDbVisualStyle
  2
Basic
 70
     7
177
     2
291
     1
 71
     1
176
     1
 72
     0
176
     1
 73
     1
176
     1
 90
        0
176
     1
 40
-0.6
176
     1
 41
-30.0
176
     1
 62
     5
 63
     7
421
 16777215
176
     1
 74
     0
176
     1
 91
        4
176
     1
 64
     7
176
     1
 65
   257
176
     1
 75
     1
176
     1
175
     1
176
     1
 42
1.0
176
     1
 92
        8
176
     1
 66
     7
176
     1
 43
1.0
176
     1
 76
     1
176
     1
 77
     6
176
     1
 78
     2
176
     1
 67
     7
176
     1
 79
     5
176
     1
170
     0
176
     1
171
     0
176
     1
290
     0
176
     1
 93
        1
176
     1
 44
0.0
176
     1
173
     0
176
     1
  0
VISUALSTYLE
  5
36
102
{ACAD_REACTORS
330
2A
102
}
330
2A
100
AcDbVisualStyle
  2
Brighten
 70
    12
177
     2
291
     1
 71
     2
176
     1
 72
     2
176
     1
 73
     0
176
     1
 90
        0
176
     1
 40
-0.6
176
     1
 41
-30.0
176
     1
 62
     5
 63
     7
421
 16777215
176
     1
 74
     1
176
     1
 91
        4
176
     1
 64
     7
176
     1
 65
   257
176
     1
 75
     1
176
     1
175
     1
176
     1
 42
1.0
176
     1
 92
        8
176
     1
 66
     7
176
     1
 43
1.0
176
     1
 76
     1
176
     1
 77
     6
176
     1
 78
     2
176
     1
 67
     7
176
     1
 79
     5
176
     1
170
     0
176
     1
171
     0
176
     1
290
     0
176
     1
 93
        1
176
     1
 44
50.0
176
     1
173
     0
176
     1
  0
VISUALSTYLE
  5
3A
102
{ACAD_REACTORS
330
2A
102
}
330
2A
100
AcDbVisualStyle
  2
ColorChange
 70
    16
177
     2
291
     1
 71
     2
176
     1
 72
     2
176
     1
 73
     3
176
     1
 90
        0
176
     1
 40
-0.6
176
     1
 41
-30.0
176
     1
 62
     5
 63
     8
421
  8421504
176
     1
 74
     1
176
     1
 91
        4
176
     1
 64
     7
176
     1
 65
   257
176
     1
 75
     1
176
     1
175
     1
176
     1
 42
1.0
176
     1
 92
        8
176
     1
 66
     8
424
  8421504
176
     1
 43
1.0
176
     1
 76
     1
176
     1
 77
     6
176
     1
 78
     2
176
     1
 67
     7
176
     1
 79
     5
176
     1
170
     0
176
     1
171
     0
176
     1
290
     0
176
     1
 93
        1
176
     1
 44
0.0
176
     1
173
     0
176
     1
  0
VISUALSTYLE
  5
34
102
{ACAD_REACTORS
330
2A
102
}
330
2A
100
AcDbVisualStyle
  2
Conceptual
 70
     9
177
     2
291
     0
 71
     3
176
     1
 72
     2
176
     1
 73
     0
176
     1
 90
        0
176
     1
 40
-0.6
176
     1
 41
-30.0
176
     1
 62
     5
 63
     7
421
 16777215
176
     1
 74
     2
176
     1
 91
        2
176
     1
 64
     7
176
     1
 65
   257
176
     1
 75
     1
176
     1
175
     1
176
     1
 42
40.0
176
     1
 92
        8
176
     1
 66
     7
176
     1
 43
1.0
176
     1
 76
     1
176
     1
 77
     6
176
     1
 78
     2
176
     1
 67
     7
176
     1
 79
     3
176
     1
170
     0
176
     1
171
     0
176
     1
290
     0
176
     1
 93
        1
176
     1
 44
0.0
176
     1
173
     0
176
     1
  0
VISUALSTYLE
  5
35
102
{ACAD_REACTORS
330
2A
102
}
330
2A
100
AcDbVisualStyle
  2
Dim
 70
    11
177
     2
291
     1
 71
     2
176
     1
 72
     2
176
     1
 73
     0
176
     1
 90
        0
176
     1
 40
-0.6
176
     1
 41
-30.0
176
     1
 62
     5
 63
     7
421
 16777215
176
     1
 74
     1
176
     1
 91
        4
176
     1
 64
     7
176
     1
 65
   257
176
     1
 75
     1
176
     1
175
     1
176
     1
 42
1.0
176
     1
 92
        8
176
     1
 66
     7
176
     1
 43
1.0
176
     1
 76
     1
176
     1
 77
     6
176
     1
 78
     2
176
     1
 67
     7
176
     1
 79
     5
176
     1
170
     0
176
     1
171
     0
176
     1
290
     0
176
     1
 93
        1
176
     1
 44
-50.0
176
     1
173
     0
176
     1
  0
VISUALSTYLE
  5
39
102
{ACAD_REACTORS
330
2A
102
}
330
2A
100
AcDbVisualStyle
  2
Facepattern
 70
    15
177
     2
291
     1
 71
     2
176
     1
 72
     2
176
     1
 73
     0
176
     1
 90
        0
176
     1
 40
-0.6
176
     1
 41
-30.0
176
     1
 62
     5
 63
     7
421
 16777215
176
     1
 74
     1
176
     1
 91
        4
176
     1
 64
     7
176
     1
 65
   257
176
     1
 75
     1
176
     1
175
     1
176
     1
 42
1.0
176
     1
 92
        8
176
     1
 66
     7
176
     1
 43
1.0
176
     1
 76
     1
176
     1
 77
     6
176
     1
 78
     2
176
     1
 67
     7
176
     1
 79
     5
176
     1
170
     0
176
     1
171
     0
176
     1
290
     0
176
     1
 93
        1
176
     1
 44
0.0
176
     1
173
     0
176
     1
  0
VISUALSTYLE
  5
2B
102
{ACAD_REACTORS
330
2A
102
}
330
2A
100
AcDbVisualStyle
  2
Flat
 70
     0
177
     2
291
     1
 71
     2
176
     1
 72
     1
176
     1
 73
     1
176
     1
 90
        2
176
     1
 40
-0.6
176
     1
 41
30.0
176
     1
 62
     5
 63
     7
421
 16777215
176
     1
 74
     0
176
     1
 91
        4
176
     1
 64
     7
176
     1
 65
   257
176
     1
 75
     1
176
     1
175
     1
176
     1
 42
1.0
176
     1
 92
        8
176
     1
 66
     7
176
     1
 43
1.0
176
     1
 76
     1
176
     1
 77
     6
176
     1
 78
     2
176
     1
 67
     7
176
     1
 79
     5
176
     1
170
     0
176
     1
171
     0
176
     1
290
     0
176
     1
 93
       13
176
     1
 44
0.0
176
     1
173
     0
176
     1
  0
VISUALSTYLE
  5
2C
102
{ACAD_REACTORS
330
2A
102
}
330
2A
100
AcDbVisualStyle
  2
FlatWithEdges
 70
     1
177
     2
291
     1
 71
     2
176
     1
 72
     1
176
     1
 73
     1
176
     1
 90
        2
176
     1
 40
-0.6
176
     1
 41
30.0
176
     1
 62
     5
 63
     7
421
 16777215
176
     1
 74
     1
176
     1
 91
        4
176
     1
 64
     7
176
     1
 65
   257
176
     1
 75
     1
176
     1
175
     1
176
     1
 42
1.0
176
     1
 92
        0
176
     1
 66
   257
176
     1
 43
1.0
176
     1
 76
     1
176
     1
 77
     6
176
     1
 78
     2
176
     1
 67
     7
176
     1
 79
     5
176
     1
170
     0
176
     1
171
     0
176
     1
290
     0
176
     1
 93
       13
176
     1
 44
0.0
176
     1
173
     0
176
     1
  0
VISUALSTYLE
  5
2D
102
{ACAD_REACTORS
330
2A
102
}
330
2A
100
AcDbVisualStyle
  2
Gouraud
 70
     2
177
     2
291
     1
 71
     2
176
     1
 72
     2
176
     1
 73
     1
176
     1
 90
        2
176
     1
 40
-0.6
176
     1
 41
30.0
176
     1
 62
     5
 63
     7
421
 16777215
176
     1
 74
     0
176
     1
 91
        4
176
     1
 64
     7
176
     1
 65
   257
176
     1
 75
     1
176
     1
175
     1
176
     1
 42
1.0
176
     1
 92
        0
176
     1
 66
     7
176
     1
 43
1.0
176
     1
 76
     1
176
     1
 77
     6
176
     1
 78
     2
176
     1
 67
     7
176
     1
 79
     5
176
     1
170
     0
176
     1
171
     0
176
     1
290
     0
176
     1
 93
       13
176
     1
 44
0.0
176
     1
173
     0
176
     1
  0
VISUALSTYLE
  5
2E
102
{ACAD_REACTORS
330
2A
102
}
330
2A
100
AcDbVisualStyle
  2
GouraudWithEdges
 70
     3
177
     2
291
     1
 71
     2
176
     1
 72
     2
176
     1
 73
     1
176
     1
 90
        2
176
     1
 40
-0.6
176
     1
 41
30.0
176
     1
 62
     5
 63
     7
421
 16777215
176
     1
 74
     1
176
     1
 91
        4
176
     1
 64
     7
176
     1
 65
   257
176
     1
 75
     1
176
     1
175
     1
176
     1
 42
1.0
176
     1
 92
        0
176
     1
 66
   257
176
     1
 43
1.0
176
     1
 76
     1
176
     1
 77
     6
176
     1
 78
     2
176
     1
 67
     7
176
     1
 79
     5
176
     1
170
     0
176
     1
171
     0
176
     1
290
     0
176
     1
 93
       13
176
     1
 44
0.0
176
     1
173
     0
176
     1
  0
VISUALSTYLE
  5
38
102
{ACAD_REACTORS
330
2A
102
}
330
2A
100
AcDbVisualStyle
  2
Linepattern
 70
    14
177
     2
291
     1
 71
     2
176
     1
 72
     2
176
     1
 73
     0
176
     1
 90
        0
176
     1
 40
-0.6
176
     1
 41
-30.0
176
     1
 62
     5
 63
     7
421
 16777215
176
     1
 74
     1
176
     1
 91
        4
176
     1
 64
     7
176
     1
 65
   257
176
     1
 75
     7
176
     1
175
     7
176
     1
 42
1.0
176
     1
 92
        8
176
     1
 66
     7
176
     1
 43
1.0
176
     1
 76
     1
176
     1
 77
     6
176
     1
 78
     2
176
     1
 67
     7
176
     1
 79
     5
176
     1
170
     0
176
     1
171
     0
176
     1
290
     0
176
     1
 93
        1
176
     1
 44
0.0
176
     1
173
     0
176
     1
  0
VISUALSTYLE
  5
33
102
{ACAD_REACTORS
330
2A
102
}
330
2A
100
AcDbVisualStyle
  2
Realistic
 70
     8
177
     2
291
     0
 71
     2
176
     1
 72
     2
176
     1
 73
     0
176
     1
 90
        0
176
     1
 40
-0.6
176
     1
 41
-30.0
176
     1
 62
     5
 63
     7
421
 16777215
176
     1
 74
     1
176
     1
 91
        0
176
     1
 64
     7
176
     1
 65
   257
176
     1
 75
     1
176
     1
175
     1
176
     1
 42
1.0
176
     1
 92
        8
176
     1
 66
     8
424
  7895160
176
     1
 43
1.0
176
     1
 76
     1
176
     1
 77
     6
176
     1
 78
     2
176
     1
 67
     7
176
     1
 79
     5
176
     1
170
     0
176
     1
171
     0
176
     1
290
     0
176
     1
 93
       13
176
     1
 44
0.0
176
     1
173
     0
176
     1
  0
VISUALSTYLE
  5
37
102
{ACAD_REACTORS
330
2A
102
}
330
2A
100
AcDbVisualStyle
  2
Thicken
 70
    13
177
     2
291
     1
 71
     2
176
     1
 72
     2
176
     1
 73
     0
176
     1
 90
        0
176
     1
 40
-0.6
176
     1
 41
-30.0
176
     1
 62
     5
 63
     7
421
 16777215
176
     1
 74
     1
176
     1
 91
        4
176
     1
 64
     7
176
     1
 65
   257
176
     1
 75
     1
176
     1
175
     1
176
     1
 42
1.0
176
     1
 92
       12
176
     1
 66
     7
176
     1
 43
1.0
176
     1
 76
     1
176
     1
 77
     6
176
     1
 78
     2
176
     1
 67
     7
176
     1
 79
     5
176
     1
170
     0
176
     1
171
     0
176
     1
290
     0
176
     1
 93
        1
176
     1
 44
0.0
176
     1
173
     0
176
     1
  0
ENDSEC
  0
EOF
