  0
SECTION
  2
HEADER
  9
$ACADVER
  1
AC1024
  9
$ACADMAINTVER
 70
     6
  9
$DWGCODEPAGE
  3
ANSI_1252
  9
$INSBASE
 10
0.0
 20
0.0
 30
0.0
  9
$EXTMIN
 10
0.0
 20
0.0
 30
0.0
  9
$EXTMAX
 10
594.0
 20
841.0
 30
0.0
  9
$LIMMIN
 10
0.0
 20
0.0
  9
$LIMMAX
 10
594.0
 20
841.0
  9
$ORTHOMODE
 70
     0
  9
$REGENMODE
 70
     1
  9
$FILLMODE
 70
     1
  9
$QTEXTMODE
 70
     0
  9
$MIRRTEXT
 70
     1
  9
$LTSCALE
 40
1.0
  9
$ATTMODE
 70
     1
  9
$TEXTSIZE
 40
10.0
  9
$TRACEWID
 40
1.0
  9
$TEXTSTYLE
  7
Standard
  9
$CLAYER
  8
0
  9
$CELTYPE
  6
ByLayer
  9
$CECOLOR
 62
   256
  9
$CELTSCALE
 40
1.0
  9
$DISPSILH
 70
     0
  9
$DIMSCALE
 40
1.0
  9
$DIMASZ
 40
2.5
  9
$DIMEXO
 40
0.0
  9
$DIMDLI
 40
3.75
  9
$DIMRND
 40
0.0
  9
$DIMDLE
 40
0.0
  9
$DIMEXE
 40
1.0
  9
$DIMTP
 40
0.0
  9
$DIMTM
 40
0.0
  9
$DIMTXT
 40
3.5
  9
$DIMCEN
 40
2.5
  9
$DIMTSZ
 40
0.0
  9
$DIMTOL
 70
     0
  9
$DIMLIM
 70
     0
  9
$DIMTIH
 70
     1
  9
$DIMTOH
 70
     1
  9
$DIMSE1
 70
     0
  9
$DIMSE2
 70
     0
  9
$DIMTAD
 70
     1
  9
$DIMZIN
 70
     0
  9
$DIMBLK
  1

  9
$DIMASO
 70
     1
  9
$DIMSHO
 70
     1
  9
$DIMPOST
  1

  9
$DIMAPOST
  1

  9
$DIMALT
 70
     0
  9
$DIMALTD
 70
     3
  9
$DIMALTF
 40
0.0393700787
  9
$DIMLFAC
 40
1.0
  9
$DIMTOFL
 70
     1
  9
$DIMTVP
 40
0.0
  9
$DIMTIX
 70
     0
  9
$DIMSOXD
 70
     0
  9
$DIMSAH
 70
     0
  9
$DIMBLK1
  1

  9
$DIMBLK2
  1

  9
$DIMSTYLE
  2
ISO-25
  9
$DIMCLRD
 70
     0
  9
$DIMCLRE
 70
     0
  9
$DIMCLRT
 70
     0
  9
$DIMTFAC
 40
1.0
  9
$DIMGAP
 40
1.5
  9
$DIMJUST
 70
     0
  9
$DIMSD1
 70
     0
  9
$DIMSD2
 70
     0
  9
$DIMTOLJ
 70
     0
  9
$DIMTZIN
 70
     0
  9
$DIMALTZ
 70
     0
  9
$DIMALTTZ
 70
     0
  9
$DIMUPT
 70
     0
  9
$DIMDEC
 70
     2
  9
$DIMTDEC
 70
     2
  9
$DIMALTU
 70
     2
  9
$DIMALTTD
 70
     3
  9
$DIMTXSTY
  7
Standard
  9
$DIMAUNIT
 70
     0
  9
$DIMADEC
 70
     2
  9
$DIMALTRND
 40
0.0
  9
$DIMAZIN
 70
     0
  9
$DIMDSEP
 70
    44
  9
$DIMATFIT
 70
     3
  9
$DIMFRAC
 70
     0
  9
$DIMLDRBLK
  1

  9
$DIMLUNIT
 70
     2
  9
$DIMLWD
 70
    -2
  9
$DIMLWE
 70
    -2
  9
$DIMTMOVE
 70
     0
  9
$DIMFXL
 40
1.0
  9
$DIMFXLON
 70
     0
  9
$DIMJOGANG
 40
0.7853981634
  9
$DIMTFILL
 70
     0
  9
$DIMTFILLCLR
 70
     0
  9
$DIMARCSYM
 70
     0
  9
$DIMLTYPE
  6

  9
$DIMLTEX1
  6

  9
$DIMLTEX2
  6

  9
$DIMTXTDIRECTION
 70
     0
  9
$LUNITS
 70
     2
  9
$LUPREC
 70
     2
  9
$SKETCHINC
 40
1.0
  9
$FILLETRAD
 40
10.0
  9
$AUNITS
 70
     0
  9
$AUPREC
 70
     2
  9
$MENU
  1
.
  9
$ELEVATION
 40
0.0
  9
$PELEVATION
 40
0.0
  9
$THICKNESS
 40
0.0
  9
$LIMCHECK
 70
     0
  9
$CHAMFERA
 40
10.0
  9
$CHAMFERB
 40
10.0
  9
$CHAMFERC
 40
20.0
  9
$CHAMFERD
 40
0.0
  9
$SKPOLY
 70
     0
  9
$TDCREATE
 40
2456212.391849155
  9
$TDUCREATE
 40
2456212.308515822
  9
$TDUPDATE
 40
2456212.391849167
  9
$TDUUPDATE
 40
2456212.308515833
  9
$TDINDWG
 40
0.0000000116
  9
$TDUSRTIMER
 40
0.0000000116
  9
$USRTIMER
 70
     1
  9
$ANGBASE
 50
0.0
  9
$ANGDIR
 70
     0
  9
$PDMODE
 70
     0
  9
$PDSIZE
 40
-1.0
  9
$PLINEWID
 40
0.0
  9
$SPLFRAME
 70
     0
  9
$SPLINETYPE
 70
     6
  9
$SPLINESEGS
 70
     8
  9
$HANDSEED
  5
278
  9
$SURFTAB1
 70
     6
  9
$SURFTAB2
 70
     6
  9
$SURFTYPE
 70
     6
  9
$SURFU
 70
     6
  9
$SURFV
 70
     6
  9
$UCSBASE
  2

  9
$UCSNAME
  2

  9
$UCSORG
 10
0.0
 20
0.0
 30
0.0
  9
$UCSXDIR
 10
1.0
 20
0.0
 30
0.0
  9
$UCSYDIR
 10
0.0
 20
1.0
 30
0.0
  9
$UCSORTHOREF
  2

  9
$UCSORTHOVIEW
 70
     0
  9
$UCSORGTOP
 10
0.0
 20
0.0
 30
0.0
  9
$UCSORGBOTTOM
 10
0.0
 20
0.0
 30
0.0
  9
$UCSORGLEFT
 10
0.0
 20
0.0
 30
0.0
  9
$UCSORGRIGHT
 10
0.0
 20
0.0
 30
0.0
  9
$UCSORGFRONT
 10
0.0
 20
0.0
 30
0.0
  9
$UCSORGBACK
 10
0.0
 20
0.0
 30
0.0
  9
$PUCSBASE
  2

  9
$PUCSNAME
  2

  9
$PUCSORG
 10
0.0
 20
0.0
 30
0.0
  9
$PUCSXDIR
 10
1.0
 20
0.0
 30
0.0
  9
$PUCSYDIR
 10
0.0
 20
1.0
 30
0.0
  9
$PUCSORTHOREF
  2

  9
$PUCSORTHOVIEW
 70
     0
  9
$PUCSORGTOP
 10
0.0
 20
0.0
 30
0.0
  9
$PUCSORGBOTTOM
 10
0.0
 20
0.0
 30
0.0
  9
$PUCSORGLEFT
 10
0.0
 20
0.0
 30
0.0
  9
$PUCSORGRIGHT
 10
0.0
 20
0.0
 30
0.0
  9
$PUCSORGFRONT
 10
0.0
 20
0.0
 30
0.0
  9
$PUCSORGBACK
 10
0.0
 20
0.0
 30
0.0
  9
$USERI1
 70
     0
  9
$USERI2
 70
     0
  9
$USERI3
 70
     0
  9
$USERI4
 70
     0
  9
$USERI5
 70
     0
  9
$USERR1
 40
0.0
  9
$USERR2
 40
0.0
  9
$USERR3
 40
0.0
  9
$USERR4
 40
0.0
  9
$USERR5
 40
0.0
  9
$WORLDVIEW
 70
     1
  9
$SHADEDGE
 70
     3
  9
$SHADEDIF
 70
    70
  9
$TILEMODE
 70
     1
  9
$MAXACTVP
 70
    64
  9
$PINSBASE
 10
0.0
 20
0.0
 30
0.0
  9
$PLIMCHECK
 70
     0
  9
$PEXTMIN
 10
1.0000000000E+20
 20
1.0000000000E+20
 30
1.0000000000E+20
  9
$PEXTMAX
 10
-1.0000000000E+20
 20
-1.0000000000E+20
 30
-1.0000000000E+20
  9
$PLIMMIN
 10
0.0
 20
0.0
  9
$PLIMMAX
 10
420.0
 20
297.0
  9
$UNITMODE
 70
     0
  9
$VISRETAIN
 70
     1
  9
$PLINEGEN
 70
     0
  9
$PSLTSCALE
 70
     1
  9
$TREEDEPTH
 70
  3020
  9
$CMLSTYLE
  2
Standard
  9
$CMLJUST
 70
     0
  9
$CMLSCALE
 40
20.0
  9
$PROXYGRAPHICS
 70
     1
  9
$MEASUREMENT
 70
     1
  9
$CELWEIGHT
370
    -1
  9
$ENDCAPS
280
     0
  9
$JOINSTYLE
280
     0
  9
$LWDISPLAY
290
     1
  9
$INSUNITS
 70
     4
  9
$HYPERLINKBASE
  1

  9
$STYLESHEET
  1

  9
$XEDIT
290
     1
  9
$CEPSNTYPE
380
     0
  9
$PSTYLEMODE
290
     1
  9
$FINGERPRINTGUID
  2
{5901B511-96D5-4233-AD16-3B004F7F1D8C}
  9
$VERSIONGUID
  2
{FAEB1C32-E019-11D5-929B-00C0DF256EC4}
  9
$EXTNAMES
290
     1
  9
$PSVPSCALE
 40
0.0
  9
$OLESTARTUP
290
     0
  9
$SORTENTS
280
   127
  9
$INDEXCTL
280
     0
  9
$HIDETEXT
280
     1
  9
$XCLIPFRAME
280
     2
  9
$HALOGAP
280
     0
  9
$OBSCOLOR
 70
   257
  9
$OBSLTYPE
280
     0
  9
$INTERSECTIONDISPLAY
280
     0
  9
$INTERSECTIONCOLOR
 70
   257
  9
$DIMASSOC
280
     2
  9
$PROJECTNAME
  1

  9
$CAMERADISPLAY
290
     0
  9
$LENSLENGTH
 40
50.0
  9
$CAMERAHEIGHT
 40
0.0
  9
$STEPSPERSEC
 40
2.0
  9
$STEPSIZE
 40
6.0
  9
$3DDWFPREC
 40
2.0
  9
$PSOLWIDTH
 40
5.0
  9
$PSOLHEIGHT
 40
80.0
  9
$LOFTANG1
 40
1.5707963268
  9
$LOFTANG2
 40
1.5707963268
  9
$LOFTMAG1
 40
0.0
  9
$LOFTMAG2
 40
0.0
  9
$LOFTPARAM
 70
     7
  9
$LOFTNORMALS
280
     1
  9
$LATITUDE
 40
37.795
  9
$LONGITUDE
 40
-122.394
  9
$NORTHDIRECTION
 40
0.0
  9
$TIMEZONE
 70
 -8000
  9
$LIGHTGLYPHDISPLAY
280
     1
  9
$TILEMODELIGHTSYNCH
280
     1
  9
$SOLIDHIST
280
     1
  9
$SHOWHIST
280
     1
  9
$DWFFRAME
280
     2
  9
$DGNFRAME
280
     2
  9
$REALWORLDSCALE
290
     1
  9
$INTERFERECOLOR
 62
   256
  9
$CSHADOW
280
     0
  9
$SHADOWPLANELOCATION
 40
0.0
  0
ENDSEC
  0
SECTION
  2
CLASSES
  0
CLASS
  1
ACDBDICTIONARYWDFLT
  2
AcDbDictionaryWithDefault
  3
ObjectDBX Classes
 90
        0
 91
        4
280
     0
281
     0
  0
CLASS
  1
VISUALSTYLE
  2
AcDbVisualStyle
  3
ObjectDBX Classes
 90
     4095
 91
        4
280
     0
281
     0
  0
CLASS
  1
MATERIAL
  2
AcDbMaterial
  3
ObjectDBX Classes
 90
     1153
 91
        4
280
     0
281
     0
  0
ENDSEC
  0
SECTION
  2
TABLES
  0
TABLE
  2
VPORT
  5
8
330
0
100
AcDbSymbolTable
 70
     1
  0
VPORT
  5
29
330
8
100
AcDbSymbolTableRecord
100
AcDbViewportTableRecord
  2
*Active
 70
     0
 10
0.0
 20
0.0
 11
1.0
 21
1.0
 12
297.0
 22
420.5
 13
0.0
 23
0.0
 14
10.0
 24
10.0
 15
10.0
 25
10.0
 16
0.0
 26
0.0
 36
1.0
 17
0.0
 27
0.0
 37
0.0
 40
841.0
 41
0.7063020214
 42
50.0
 43
0.0
 44
0.0
 50
0.0
 51
0.0
 71
     0
 72
  2000
 73
     1
 74
     3
 75
     0
 76
     0
 77
     0
 78
     0
281
     0
 65
     1
110
0.0
120
0.0
130
0.0
111
1.0
121
0.0
131
0.0
112
0.0
122
1.0
132
0.0
 79
     0
146
0.0
 60
     3
 61
     5
292
     1
282
     1
141
0.0
142
0.0
 63
   250
  0
ENDTAB
  0
TABLE
  2
LTYPE
  5
5
330
0
100
AcDbSymbolTable
 70
     6
  0
LTYPE
  5
14
330
5
100
AcDbSymbolTableRecord
100
AcDbLinetypeTableRecord
  2
ByBlock
 70
     0
  3

 72
    65
 73
     0
 40
0.0
  0
LTYPE
  5
15
330
5
100
AcDbSymbolTableRecord
100
AcDbLinetypeTableRecord
  2
ByLayer
 70
     0
  3

 72
    65
 73
     0
 40
0.0
  0
LTYPE
  5
16
330
5
100
AcDbSymbolTableRecord
100
AcDbLinetypeTableRecord
  2
Continuous
 70
     0
  3
Solid line
 72
    65
 73
     0
 40
0.0
  0
LTYPE
  5
3F
330
5
100
AcDbSymbolTableRecord
100
AcDbLinetypeTableRecord
  2
HIDDEN
 70
     0
  3
Hidden __ __ __ __ __ __ __ __ __ __ __ __ __ __
 72
    65
 73
     2
 40
1.905
 49
1.27
 74
     0
 49
-0.635
 74
     0
  0
LTYPE
  5
40
330
5
100
AcDbSymbolTableRecord
100
AcDbLinetypeTableRecord
  2
PHANTOM
 70
     0
  3
Phantom ______  __  __  ______  __  __  ______
 72
    65
 73
     6
 40
12.7
 49
6.35
 74
     0
 49
-1.27
 74
     0
 49
1.27
 74
     0
 49
-1.27
 74
     0
 49
1.27
 74
     0
 49
-1.27
 74
     0
  0
LTYPE
  5
41
330
5
100
AcDbSymbolTableRecord
100
AcDbLinetypeTableRecord
  2
CENTER
 70
     0
  3
Center ____ _ ____ _ ____ _ ____ _ ____ _ ____
 72
    65
 73
     4
 40
10.16
 49
6.35
 74
     0
 49
-1.27
 74
     0
 49
1.27
 74
     0
 49
-1.27
 74
     0
  0
LTYPE
  5
42
330
5
100
AcDbSymbolTableRecord
100
AcDbLinetypeTableRecord
  2
CENTERX2
 70
     0
  3
Center (2x) ________  __  ________  __  _____
 72
    65
 73
     4
 40
20.32
 49
12.7
 74
     0
 49
-2.54
 74
     0
 49
2.54
 74
     0
 49
-2.54
 74
     0
  0
LTYPE
  5
43
330
5
100
AcDbSymbolTableRecord
100
AcDbLinetypeTableRecord
  2
DOT2
 70
     0
  3
Dot (.5x) ........................................
 72
    65
 73
     2
 40
0.635
 49
0.0
 74
     0
 49
-0.635
 74
     0
  0
ENDTAB
  0
TABLE
  2
LAYER
  5
2
330
0
100
AcDbSymbolTable
 70
     1
  0
LAYER
  5
10
330
2
100
AcDbSymbolTableRecord
100
AcDbLayerTableRecord
  2
0
 70
     0
 62
     7
  6
Continuous
370
    -3
390
F
347
3E
  0
ENDTAB
  0
TABLE
  2
STYLE
  5
3
330
0
100
AcDbSymbolTable
 70
     3
  0
STYLE
  5
11
330
3
100
AcDbSymbolTableRecord
100
AcDbTextStyleTableRecord
  2
Standard
 70
     0
 40
0.0
 41
1.0
 50
0.0
 71
     0
 42
2.5
  3
txt
  4

  0
STYLE
  5
47
330
3
100
AcDbSymbolTableRecord
100
AcDbTextStyleTableRecord
  2
SLDTEXTSTYLE0
 70
     0
 40
0.0
 41
0.96
 50
0.0
 71
     0
 42
0.2
  3
ISOCP3
  4

  0
STYLE
  5
5E
330
3
100
AcDbSymbolTableRecord
100
AcDbTextStyleTableRecord
  2
SLDTEXTSTYLE1
 70
     0
 40
0.0
 41
0.605
 50
0.0
 71
     0
 42
0.2
  3
TXT
  4

  0
ENDTAB
  0
TABLE
  2
VIEW
  5
6
330
0
100
AcDbSymbolTable
 70
     0
  0
ENDTAB
  0
TABLE
  2
UCS
  5
7
330
0
100
AcDbSymbolTable
 70
     0
  0
ENDTAB
  0
TABLE
  2
APPID
  5
9
330
0
100
AcDbSymbolTable
 70
     1
  0
APPID
  5
12
330
9
100
AcDbSymbolTableRecord
100
AcDbRegAppTableRecord
  2
ACAD
 70
     0
  0
ENDTAB
  0
TABLE
  2
DIMSTYLE
  5
A
330
0
100
AcDbSymbolTable
 70
     2
100
AcDbDimStyleTable
  0
DIMSTYLE
105
27
330
A
100
AcDbSymbolTableRecord
100
AcDbDimStyleTableRecord
  2
ISO-25
 70
     0
 41
2.5
 42
0.625
 43
3.75
 44
1.25
 73
     0
 74
     0
 77
     1
 78
     8
140
2.5
141
2.5
143
0.0393700787
147
0.625
171
     3
172
     1
178
     0
271
     2
272
     2
274
     3
278
    44
283
     0
284
     8
340
11
  0
DIMSTYLE
105
48
102
{ACAD_REACTORS
330
46
330
53
102
}
330
A
100
AcDbSymbolTableRecord
100
AcDbDimStyleTableRecord
  2
SLDDIMSTYLE0
 70
     0
 41
2.5
 44
0.0
 45
0.000000001
 73
     0
 74
     0
 77
     1
 78
    12
 79
     3
140
6.0
147
1.5
173
     1
178
     0
271
     2
272
     2
276
     2
284
    12
340
47
  0
ENDTAB
  0
TABLE
  2
BLOCK_RECORD
  5
1
330
0
100
AcDbSymbolTable
 70
     3
  0
BLOCK_RECORD
  5
1F
330
1
100
AcDbSymbolTableRecord
100
AcDbBlockTableRecord
  2
*Model_Space
340
22
 70
     0
280
     1
281
     0
  0
BLOCK_RECORD
  5
1B
330
1
100
AcDbSymbolTableRecord
100
AcDbBlockTableRecord
  2
*Paper_Space
340
1E
 70
     0
280
     1
281
     0
  0
BLOCK_RECORD
  5
23
330
1
100
AcDbSymbolTableRecord
100
AcDbBlockTableRecord
  2
*Paper_Space0
340
26
 70
     0
280
     1
281
     0
  0
BLOCK_RECORD
  5
49
330
1
100
AcDbSymbolTableRecord
100
AcDbBlockTableRecord
  2
*D1
340
0
 70
     0
280
     1
281
     0
  0
BLOCK_RECORD
  5
54
330
1
100
AcDbSymbolTableRecord
100
AcDbBlockTableRecord
  2
*D2
340
0
 70
     0
280
     1
281
     0
  0
ENDTAB
  0
ENDSEC
  0
SECTION
  2
BLOCKS
  0
BLOCK
  5
20
330
1F
100
AcDbEntity
  8
0
100
AcDbBlockBegin
  2
*Model_Space
 70
     0
 10
0.0
 20
0.0
 30
0.0
  3
*Model_Space
  1

  0
ENDBLK
  5
21
330
1F
100
AcDbEntity
  8
0
100
AcDbBlockEnd
  0
BLOCK
  5
1C
330
1B
100
AcDbEntity
 67
     1
  8
0
100
AcDbBlockBegin
  2
*Paper_Space
 70
     0
 10
0.0
 20
0.0
 30
0.0
  3
*Paper_Space
  1

  0
ENDBLK
  5
1D
330
1B
100
AcDbEntity
 67
     1
  8
0
100
AcDbBlockEnd
  0
BLOCK
  5
24
330
23
100
AcDbEntity
  8
0
100
AcDbBlockBegin
  2
*Paper_Space0
 70
     0
 10
0.0
 20
0.0
 30
0.0
  3
*Paper_Space0
  1

  0
ENDBLK
  5
25
330
23
100
AcDbEntity
  8
0
100
AcDbBlockEnd
  0
BLOCK
  5
4A
330
49
100
AcDbEntity
  8
0
100
AcDbBlockBegin
  2
*D1
 70
     1
 10
0.0
 20
0.0
 30
0.0
  3
*D1
  1

  0
SOLID
  5
4C
330
49
100
AcDbEntity
  8
0
  6
Continuous
 62
     7
370
     0
100
AcDbTrace
 10
42.7614395004
 20
152.0299240879
 30
0.0
 11
42.4614395004
 21
149.5299240879
 31
0.0
 12
43.0614395004
 22
149.5299240879
 32
0.0
 13
43.0614395004
 23
149.5299240879
 33
0.0
  0
SOLID
  5
4D
330
49
100
AcDbEntity
  8
0
  6
Continuous
 62
     7
370
     0
100
AcDbTrace
 10
42.7614395004
 20
52.0299240879
 30
0.0
 11
43.0614395004
 21
54.5299240879
 31
0.0
 12
42.4614395004
 22
54.5299240879
 32
0.0
 13
42.4614395004
 23
54.5299240879
 33
0.0
  0
LINE
  5
4E
330
49
100
AcDbEntity
  8
0
  6
Continuous
 62
     7
370
     0
100
AcDbLine
 10
56.6850079902
 20
152.0299240879
 30
0.0
 11
41.7614395004
 21
152.0299240879
 31
0.0
  0
LINE
  5
4F
330
49
100
AcDbEntity
  8
0
  6
Continuous
 62
     7
370
     0
100
AcDbLine
 10
56.6850079902
 20
52.0299240879
 30
0.0
 11
41.7614395004
 21
52.0299240879
 31
0.0
  0
LINE
  5
50
330
49
100
AcDbEntity
  8
0
  6
Continuous
 62
     7
370
     0
100
AcDbLine
 10
42.7614395004
 20
152.0299240879
 30
0.0
 11
42.7614395004
 21
52.0299240879
 31
0.0
  0
MTEXT
  5
51
330
49
100
AcDbEntity
  8
0
  6
Continuous
 62
     7
370
     0
100
AcDbMText
 10
35.0270332946
 20
91.6722208134
 30
0.1
 40
6.0
 41
0.0
 46
0.0
 71
     1
 72
     1
  1
100
  7
SLDTEXTSTYLE0
 11
-7.044195017643634E-15
 21
1.0
 31
0.0
 73
     1
 44
1.0
  0
MTEXT
  5
52
330
49
100
AcDbEntity
  8
0
  6
Continuous
 62
     7
370
     0
100
AcDbMText
 10
35.0270332946
 20
108.4388881795
 30
0.1
 40
6.0
 41
0.0
 46
0.0
 71
     1
 72
     1
  1
mm
  7
SLDTEXTSTYLE0
 11
-7.044195017643634E-15
 21
1.0
 31
0.0
 73
     1
 44
1.0
  0
ENDBLK
  5
4B
330
49
100
AcDbEntity
  8
0
100
AcDbBlockEnd
  0
BLOCK
  5
55
330
54
100
AcDbEntity
  8
0
100
AcDbBlockBegin
  2
*D2
 70
     1
 10
0.0
 20
0.0
 30
0.0
  3
*D2
  1

  0
SOLID
  5
57
330
54
100
AcDbEntity
  8
0
  6
Continuous
 62
     7
370
     0
100
AcDbTrace
 10
56.6850079902
 20
38.4602342313
 30
0.0
 11
59.1850079902
 21
38.1602342313
 31
0.0
 12
59.1850079902
 22
38.7602342313
 32
0.0
 13
59.1850079902
 23
38.7602342313
 33
0.0
  0
SOLID
  5
58
330
54
100
AcDbEntity
  8
0
  6
Continuous
 62
     7
370
     0
100
AcDbTrace
 10
156.6850079902
 20
38.4602342313
 30
0.0
 11
154.1850079902
 21
38.7602342313
 31
0.0
 12
154.1850079902
 22
38.1602342313
 32
0.0
 13
154.1850079902
 23
38.1602342313
 33
0.0
  0
LINE
  5
59
330
54
100
AcDbEntity
  8
0
  6
Continuous
 62
     7
370
     0
100
AcDbLine
 10
56.6850079902
 20
52.0299240879
 30
0.0
 11
56.6850079902
 21
37.4602342313
 31
0.0
  0
LINE
  5
5A
330
54
100
AcDbEntity
  8
0
  6
Continuous
 62
     7
370
     0
100
AcDbLine
 10
156.6850079902
 20
52.0299240879
 30
0.0
 11
156.6850079902
 21
37.4602342313
 31
0.0
  0
LINE
  5
5B
330
54
100
AcDbEntity
  8
0
  6
Continuous
 62
     7
370
     0
100
AcDbLine
 10
56.6850079902
 20
38.4602342313
 30
0.0
 11
156.6850079902
 21
38.4602342313
 31
0.0
  0
MTEXT
  5
5C
330
54
100
AcDbEntity
  8
0
  6
Continuous
 62
     7
370
     0
100
AcDbMText
 10
91.2668151533
 20
46.1946404371
 30
0.1
 40
6.0
 41
0.0
 46
0.0
 71
     1
 72
     1
  1
100
  7
SLDTEXTSTYLE0
 73
     1
 44
1.0
  0
MTEXT
  5
5D
330
54
100
AcDbEntity
  8
0
  6
Continuous
 62
     7
370
     0
100
AcDbMText
 10
108.0334825193
 20
46.1946404371
 30
0.1
 40
6.0
 41
0.0
 46
0.0
 71
     1
 72
     1
  1
mm
  7
SLDTEXTSTYLE0
 73
     1
 44
1.0
  0
ENDBLK
  5
56
330
54
100
AcDbEntity
  8
0
100
AcDbBlockEnd
  0
ENDSEC
  0
SECTION
  2
ENTITIES
  0
LINE
  5
44
330
1F
100
AcDbEntity
  8
0
  6
Continuous
 62
     7
370
     0
100
AcDbLine
 10
56.6850079902
 20
152.0299240879
 30
0.0
 11
56.6850079902
 21
52.0299240879
 31
0.0
  0
LINE
  5
45
330
1F
100
AcDbEntity
  8
0
  6
Continuous
 62
     7
370
     0
100
AcDbLine
 10
56.6850079902
 20
52.0299240879
 30
0.0
 11
156.6850079902
 21
52.0299240879
 31
0.0
  0
DIMENSION
  5
46
330
1F
100
AcDbEntity
  8
0
  6
Continuous
 62
     7
370
     0
100
AcDbDimension
280
     0
  2
*D1
 10
42.7614395004
 20
52.0299240879
 30
0.0
 11
42.7614395004
 21
105.4472211621
 31
0.0
 70
   160
  1
<>mm
 71
     2
 42
-1.0
 73
     0
 74
     0
 75
     0
  3
SLDDIMSTYLE0
100
AcDbAlignedDimension
 13
56.6850079902
 23
152.0299240879
 33
0.0
 14
56.6850079902
 24
52.0299240879
 34
0.0
 50
90.0
100
AcDbRotatedDimension
  0
DIMENSION
  5
53
330
1F
100
AcDbEntity
  8
0
  6
Continuous
 62
     7
370
     0
100
AcDbDimension
280
     0
  2
*D2
 10
156.6850079902
 20
38.4602342313
 30
0.0
 11
105.0418155019
 21
38.4602342313
 31
0.0
 70
   160
  1
<>mm
 71
     2
 42
-1.0
 73
     0
 74
     0
 75
     0
  3
SLDDIMSTYLE0
100
AcDbAlignedDimension
 13
56.6850079902
 23
52.0299240879
 33
0.0
 14
156.6850079902
 24
52.0299240879
 34
0.0
100
AcDbRotatedDimension
  0
MTEXT
  5
5F
330
1F
100
AcDbEntity
  8
0
  6
Continuous
 62
     7
370
     0
100
AcDbMText
 10
283.6253288007
 20
46.8738705962
 30
0.0
 40
10.0
 41
0.0
 46
0.0
 71
     1
 72
     1
  1
37 681 05 75
  7
SLDTEXTSTYLE1
 73
     1
 44
1.0
  0
MTEXT
  5
60
330
1F
100
AcDbEntity
  8
0
  6
Continuous
 62
     7
370
     0
100
AcDbMText
 10
412.8252631579
 20
48.4342449499
 30
0.0
 40
10.0
 41
0.0
 46
0.0
 71
     1
 72
     1
  1
KLUDI GmbH & Co KG
  7
SLDTEXTSTYLE1
 73
     1
 44
1.0
  0
SPLINE
  5
61
330
1F
100
AcDbEntity
  8
0
  6
Continuous
 62
     7
370
    15
100
AcDbSpline
210
0.0
220
0.0
230
1.0
 70
     8
 71
     3
 72
     9
 73
     5
 74
     0
 42
0.00000001
 43
0.00000001
 40
0.0
 40
0.0
 40
0.0
 40
0.0
 40
0.1040239264729766
 40
1.0
 40
1.0
 40
1.0
 40
1.0
 10
178.9466903032817
 20
345.0582052196744
 30
0.0
 10
178.9775558500031
 20
344.9694780524692
 30
0.0
 10
179.2742716899821
 20
344.1165284454548
 30
0.0
 10
179.7117159676387
 20
343.325220547044
 30
0.0
 10
180.1036555739202
 20
342.6162276032749
 30
0.0
  0
LINE
  5
62
330
1F
100
AcDbEntity
  8
0
  6
Continuous
 62
     7
370
    15
100
AcDbLine
 10
207.7178833028
 20
337.4219703569
 30
0.0
 11
207.7178833028
 21
341.7087878648
 31
0.0
  0
LINE
  5
63
330
1F
100
AcDbEntity
  8
0
  6
Continuous
 62
     7
370
    15
100
AcDbLine
 10
183.6458832445
 20
341.7087878648
 30
0.0
 11
183.6458832445
 21
337.4219703569
 31
0.0
  0
LINE
  5
64
330
1F
100
AcDbEntity
  8
0
  6
Continuous
 62
     7
370
    15
100
AcDbLine
 10
183.6458832445
 20
337.4219703569
 30
0.0
 11
184.6488841297
 21
336.8428880663
 31
0.0
  0
LINE
  5
65
330
1F
100
AcDbEntity
  8
0
  6
Continuous
 62
     7
370
    15
100
AcDbLine
 10
206.7148833489
 20
336.8428880663
 30
0.0
 11
207.7178833028
 21
337.4219703569
 31
0.0
  0
SPLINE
  5
66
330
1F
100
AcDbEntity
  8
0
  6
Continuous
 62
     7
370
    15
100
AcDbSpline
210
0.0
220
0.0
230
1.0
 70
     8
 71
     3
 72
    17
 73
    13
 74
     0
 42
0.00000001
 43
0.00000001
 40
0.0
 40
0.0
 40
0.0
 40
0.0
 40
0.0044295126123208
 40
0.0878273186930285
 40
0.1693260330775611
 40
0.2730859321734361
 40
0.4131759550716104
 40
0.5485393651791488
 40
0.6790530803909228
 40
0.8075499718241376
 40
0.9348801348631985
 40
1.0
 40
1.0
 40
1.0
 40
1.0
 10
205.7075919769787
 20
418.4740676160339
 30
0.0
 10
205.7096281769843
 20
418.4823255283145
 30
0.0
 10
205.750001464628
 20
418.6460614417405
 30
0.0
 10
205.5839976445276
 20
418.9726075588707
 30
0.0
 10
205.2969498351616
 20
419.2991118842277
 30
0.0
 10
204.8245262298069
 20
419.5923982806736
 30
0.0
 10
204.1092636767109
 20
419.8742031829535
 30
0.0
 10
203.1170287208377
 20
420.1291714369976
 30
0.0
 10
201.9704798712974
 20
420.3285058233112
 30
0.0
 10
200.7158860494282
 20
420.4663854937459
 30
0.0
 10
199.6051075886284
 20
420.5406070957208
 30
0.0
 10
198.9284949332996
 20
420.5437677903869
 30
0.0
 10
198.6995475785889
 20
420.5448372836593
 30
0.0
  0
SPLINE
  5
67
330
1F
100
AcDbEntity
  8
0
  6
Continuous
 62
     7
370
    15
100
AcDbSpline
210
0.0
220
0.0
230
1.0
 70
     8
 71
     3
 72
    16
 73
    12
 74
     0
 42
0.00000001
 43
0.00000001
 40
0.0
 40
0.0
 40
0.0
 40
0.0
 40
0.1113507250612211
 40
0.2380647990290364
 40
0.3652858793769623
 40
0.493739638283886
 40
0.6234761887722954
 40
0.7572560510695867
 40
0.8701860714735601
 40
0.9523835203241625
 40
1.0
 40
1.0
 40
1.0
 40
1.0
 10
192.6680976944127
 20
420.5492852802757
 30
0.0
 10
192.2761384965206
 20
420.5417120051345
 30
0.0
 10
191.4381404716092
 20
420.5255205504
 30
0.0
 10
190.1966443600328
 20
420.4239341668373
 30
0.0
 10
188.9937791558364
 20
420.2670104644982
 30
0.0
 10
187.9286711807418
 20
420.0557460752369
 30
0.0
 10
187.0315335446515
 20
419.7959813755291
 30
0.0
 10
186.3665225864168
 20
419.5047928661293
 30
0.0
 10
185.9458829404297
 20
419.1833568130926
 30
0.0
 10
185.6758190574675
 20
418.8223500014645
 30
0.0
 10
185.681929060013
 20
418.562596453499
 30
0.0
 10
185.6841702433385
 20
418.4673173900131
 30
0.0
  0
SPLINE
  5
68
330
1F
100
AcDbEntity
  8
0
  6
Continuous
 62
     7
370
    15
100
AcDbSpline
210
0.0
220
0.0
230
1.0
 70
     8
 71
     3
 72
     9
 73
     5
 74
     0
 42
0.00000001
 43
0.00000001
 40
0.0
 40
0.0
 40
0.0
 40
0.0
 40
0.7389571382319644
 40
1.0
 40
1.0
 40
1.0
 40
1.0
 10
198.6995578231372
 20
420.5529435153488
 30
0.0
 10
197.2138905138783
 20
420.5633392564611
 30
0.0
 10
195.2033986566461
 20
420.577407381085
 30
0.0
 10
193.1929995457718
 20
420.5580076711482
 30
0.0
 10
192.6681992085733
 20
420.5529435153488
 30
0.0
  0
LINE
  5
69
330
1F
100
AcDbEntity
  8
0
  6
Continuous
 62
     7
370
    15
100
AcDbLine
 10
185.2526791813
 20
322.3007383372
 30
0.0
 11
186.2055283459
 21
321.3478882413
 31
0.0
  0
LINE
  5
6A
330
1F
100
AcDbEntity
  8
0
  6
Continuous
 62
     7
370
    15
100
AcDbLine
 10
205.1622285694
 20
321.3478882413
 30
0.0
 11
206.1150785489
 21
322.3007383372
 31
0.0
  0
LINE
  5
6B
330
1F
100
AcDbEntity
  8
0
  6
Continuous
 62
     7
370
    15
100
AcDbLine
 10
206.1150785489
 20
322.3007383372
 30
0.0
 11
206.1150785489
 21
336.8428880663
 31
0.0
  0
LINE
  5
6C
330
1F
100
AcDbEntity
  8
0
  6
Continuous
 62
     7
370
    15
100
AcDbLine
 10
185.2526791813
 20
336.8428880663
 30
0.0
 11
185.2526791813
 21
322.3007383372
 31
0.0
  0
ARC
  5
6D
330
1F
100
AcDbEntity
  8
0
  6
Continuous
 62
     7
370
    15
100
AcDbCircle
 10
204.7610285798
 20
385.483276212
 30
0.0
 40
1.203600000000019
100
AcDbArc
 50
350.7972016979
 51
71.6852953135
  0
ARC
  5
6E
330
1F
100
AcDbEntity
  8
0
  6
Continuous
 62
     7
370
    15
100
AcDbCircle
 10
186.6067285798
 20
385.483276212
 30
0.0
 40
1.20360000000001
100
AcDbArc
 50
108.3147046865
 51
189.2027983021
  0
LINE
  5
6F
330
1F
100
AcDbEntity
  8
0
  6
Continuous
 62
     7
370
    15
100
AcDbLine
 10
185.418620375
 20
385.2907835122
 30
0.0
 11
187.3408720316
 21
373.4261176165
 31
0.0
  0
LINE
  5
70
330
1F
100
AcDbEntity
  8
0
  6
Continuous
 62
     7
370
    15
100
AcDbLine
 10
204.0268846508
 20
373.4261176165
 30
0.0
 11
205.9491364239
 21
385.2907835122
 31
0.0
  0
ARC
  5
71
330
1F
100
AcDbEntity
  8
0
  6
Continuous
 62
     7
370
    15
100
AcDbCircle
 10
195.6838785798
 20
358.0601207984
 30
0.0
 40
30.09
100
AcDbArc
 50
71.6852953135
 51
108.3147046865
  0
ARC
  5
72
330
1F
100
AcDbEntity
  8
0
  6
Continuous
 62
     7
370
    15
100
AcDbCircle
 10
187.8359174178
 20
373.5063207984
 30
0.0
 40
0.5015000000000189
100
AcDbArc
 50
189.2027983021
 51
270.0
  0
ARC
  5
73
330
1F
100
AcDbEntity
  8
0
  6
Continuous
 62
     7
370
    15
100
AcDbCircle
 10
203.5318397417
 20
373.5063207984
 30
0.0
 40
0.501499999999991
100
AcDbArc
 50
270.0
 51
350.7972016979
  0
LINE
  5
74
330
1F
100
AcDbEntity
  8
0
  6
Continuous
 62
     7
370
    15
100
AcDbLine
 10
198.1913784007
 20
366.7837871786
 30
0.0
 11
198.1913784007
 21
373.0048208113
 31
0.0
  0
LINE
  5
75
330
1F
100
AcDbEntity
  8
0
  6
Continuous
 62
     7
370
    15
100
AcDbLine
 10
193.1763781654
 20
373.0048208113
 30
0.0
 11
193.1763781654
 21
366.7837871786
 31
0.0
  0
LINE
  5
76
330
1F
100
AcDbEntity
  8
0
  6
Continuous
 62
     7
370
    15
100
AcDbLine
 10
218.7528783875
 20
371.8316114123
 30
0.0
 11
218.7528783875
 21
403.2510115381
 31
0.0
  0
LINE
  5
77
330
1F
100
AcDbEntity
  8
0
  6
Continuous
 62
     7
370
    15
100
AcDbLine
 10
172.6148795756
 20
403.2549081917
 30
0.0
 11
172.6148795756
 21
371.8316114123
 31
0.0
  0
SPLINE
  5
78
330
1F
100
AcDbEntity
  8
0
  6
Continuous
 62
     7
370
    15
100
AcDbSpline
210
0.0
220
0.0
230
1.0
 70
     8
 71
     3
 72
    10
 73
     6
 74
     0
 42
0.00000001
 43
0.00000001
 40
0.0
 40
0.0
 40
0.0
 40
0.0
 40
0.2741013731872275
 40
0.6433864565596918
 40
1.0
 40
1.0
 40
1.0
 40
1.0
 10
185.7576813967981
 20
409.0303598518852
 30
0.0
 10
185.7140419404155
 20
409.0104746898488
 30
0.0
 10
185.6116089066745
 20
408.9637990975601
 30
0.0
 10
185.2873301907185
 20
408.8665494361926
 30
0.0
 10
184.9574021778828
 20
408.8121829109308
 30
0.0
 10
184.7953178407707
 20
408.7854741688255
 30
0.0
  0
SPLINE
  5
79
330
1F
100
AcDbEntity
  8
0
  6
Continuous
 62
     7
370
    15
100
AcDbSpline
210
0.0
220
0.0
230
1.0
 70
     8
 71
     3
 72
    10
 73
     6
 74
     0
 42
0.00000001
 43
0.00000001
 40
0.0
 40
0.0
 40
0.0
 40
0.0
 40
0.2115343074459726
 40
0.679782453711384
 40
1.0
 40
1.0
 40
1.0
 40
1.0
 10
206.5675474191167
 20
408.7890206451896
 30
0.0
 10
206.4645190569017
 20
408.8037729822244
 30
0.0
 10
206.1334291561002
 20
408.8511807998431
 30
0.0
 10
205.7754732648954
 20
408.9548681946327
 30
0.0
 10
205.6514120378766
 20
409.012015850386
 30
0.0
 10
205.6010273704388
 20
409.035225081015
 30
0.0
  0
ARC
  5
7A
330
1F
100
AcDbEntity
  8
0
  6
Continuous
 62
     7
370
    15
100
AcDbCircle
 10
195.6838785798
 20
366.7837880391
 30
0.0
 40
21.7097954043791
100
AcDbArc
 50
166.5548992198
 51
173.3674853849
  0
ARC
  5
7B
330
1F
100
AcDbEntity
  8
0
  6
Continuous
 62
     7
370
    15
100
AcDbCircle
 10
195.6838785798
 20
366.7837880391
 30
0.0
 40
21.70979540437908
100
AcDbArc
 50
6.6325146151
 51
13.4451007802
  0
SPLINE
  5
7C
330
1F
100
AcDbEntity
  8
0
  6
Continuous
 62
     7
370
    15
100
AcDbSpline
210
0.0
220
0.0
230
1.0
 70
     8
 71
     3
 72
    11
 73
     7
 74
     0
 42
0.00000001
 43
0.00000001
 40
0.0
 40
0.0
 40
0.0
 40
0.0
 40
0.2370147843002554
 40
0.5427404752510655
 40
0.7993036270836537
 40
0.9999999999999999
 40
0.9999999999999999
 40
0.9999999999999999
 40
0.9999999999999999
 10
174.5454945089378
 20
405.6767715688232
 30
0.0
 10
174.2895694663484
 20
405.516546044365
 30
0.0
 10
173.7035263650552
 20
405.1496453991226
 30
0.0
 10
173.1268398936541
 20
404.5718087337675
 30
0.0
 10
172.7181441204005
 20
403.9647176074196
 30
0.0
 10
172.6580571920151
 20
403.5439745915486
 30
0.0
 10
172.6316843601026
 20
403.359305727053
 30
0.0
  0
SPLINE
  5
7D
330
1F
100
AcDbEntity
  8
0
  6
Continuous
 62
     7
370
    15
100
AcDbSpline
210
0.0
220
0.0
230
1.0
 70
     8
 71
     3
 72
    12
 73
     8
 74
     0
 42
0.00000001
 43
0.00000001
 40
0.0
 40
0.0
 40
0.0
 40
0.0
 40
0.148264330295441
 40
0.4024459809631777
 40
0.6766459878205119
 40
0.985752019433315
 40
1.0
 40
1.0
 40
1.0
 40
1.0
 10
218.7169107096352
 20
403.2407148356918
 30
0.0
 10
218.7215978704578
 20
403.3694504607638
 30
0.0
 10
218.7343206138945
 20
403.7188880821645
 30
0.0
 10
218.4696683496833
 20
404.2633243992167
 30
0.0
 10
217.9644798727664
 20
404.8608092769608
 30
0.0
 10
217.5212854832334
 20
405.2604543937097
 30
0.0
 10
217.1722459969474
 20
405.4644776774724
 30
0.0
 10
217.1568662347354
 20
405.4734675760749
 30
0.0
  0
LINE
  5
7E
330
1F
100
AcDbEntity
  8
0
  6
Continuous
 62
     7
370
    15
100
AcDbLine
 10
174.1193790408
 20
369.291287529
 30
0.0
 11
174.1193790408
 21
366.7837871786
 31
0.0
  0
LINE
  5
7F
330
1F
100
AcDbEntity
  8
0
  6
Continuous
 62
     7
370
    15
100
AcDbLine
 10
217.2483789222
 20
366.7837871786
 30
0.0
 11
217.2483789222
 21
369.291287529
 31
0.0
  0
LINE
  5
80
330
1F
100
AcDbEntity
  8
0
  6
Continuous
 62
     7
370
    15
100
AcDbLine
 10
213.9872001903
 20
353.7447887089
 30
0.0
 11
214.0581399622
 21
353.7447887089
 31
0.0
  0
SPLINE
  5
81
330
1F
100
AcDbEntity
  8
0
  6
Continuous
 62
     7
370
    15
100
AcDbSpline
210
0.0
220
0.0
230
1.0
 70
     8
 71
     3
 72
    14
 73
    10
 74
     0
 42
0.00000001
 43
0.00000001
 40
0.0
 40
0.0
 40
0.0
 40
0.0
 40
0.4999999999999974
 40
0.4999999999999974
 40
0.7499999999999987
 40
0.7499999999999987
 40
0.8749999999999993
 40
0.8749999999999993
 40
1.0
 40
1.0
 40
1.0
 40
1.0
 10
177.3090736579628
 20
353.7441457238737
 30
0.0
 10
177.3211186566334
 20
353.7444079034166
 30
0.0
 10
177.333634688678
 20
353.7452276543743
 30
0.0
 10
177.3509193764687
 20
353.744694295933
 30
0.0
 10
177.3569330337073
 20
353.7448149191421
 30
0.0
 10
177.3658880363476
 20
353.7449183401907
 30
0.0
 10
177.3686919542223
 20
353.7447384623798
 30
0.0
 10
177.3747394793024
 20
353.7448991756149
 30
0.0
 10
177.3762282421546
 20
353.7431625230916
 30
0.0
 10
177.3805650749234
 20
353.7447971866104
 30
0.0
  0
SPLINE
  5
82
330
1F
100
AcDbEntity
  8
0
  6
Continuous
 62
     7
370
    15
100
AcDbSpline
210
0.0
220
0.0
230
1.0
 70
     8
 71
     3
 72
    11
 73
     7
 74
     0
 42
0.00000001
 43
0.00000001
 40
0.0
 40
0.0
 40
0.0
 40
0.0
 40
0.3563648426628527
 40
0.710949115649601
 40
0.9983773041290722
 40
1.0
 40
1.0
 40
1.0
 40
1.0
 10
177.308791917757
 20
353.7445372517589
 30
0.0
 10
177.3325643759166
 20
352.685221154347
 30
0.0
 10
177.379990513633
 20
350.5718818108226
 30
0.0
 10
178.0232596889431
 20
347.673395705017
 30
0.0
 10
178.5638862244827
 20
345.8306578397901
 30
0.0
 10
178.9324118073417
 20
345.0567403066491
 30
0.0
 10
178.9344806643285
 20
345.052395629454
 30
0.0
  0
LINE
  5
83
330
1F
100
AcDbEntity
  8
0
  6
Continuous
 62
     7
370
    15
100
AcDbLine
 10
179.2861853214
 20
366.7837871786
 30
0.0
 11
189.4160990091
 21
366.7837871786
 31
0.0
  0
LINE
  5
84
330
1F
100
AcDbEntity
  8
0
  6
Continuous
 62
     7
370
    15
100
AcDbLine
 10
201.9516580226
 20
366.7837871786
 30
0.0
 11
212.081572176
 21
366.7837871786
 31
0.0
  0
LINE
  5
85
330
1F
100
AcDbEntity
  8
0
  6
Continuous
 62
     7
370
    15
100
AcDbLine
 10
189.4160990091
 20
366.7837871786
 30
0.0
 11
201.9516580226
 21
366.7837871786
 31
0.0
  0
SPLINE
  5
86
330
1F
100
AcDbEntity
  8
0
  6
Continuous
 62
     7
370
    15
100
AcDbSpline
210
0.0
220
0.0
230
1.0
 70
    24
 71
     3
 72
    18
 73
    14
 74
     0
 42
0.00000001
 43
0.00000001
 40
0.0
 40
0.0
 40
0.0
 40
0.0
 40
0.2500000000000001
 40
0.2500000000000001
 40
0.3750000000000001
 40
0.3750000000000001
 40
0.5
 40
0.5
 40
0.7500000000000003
 40
0.7500000000000003
 40
0.8750000000000001
 40
0.8750000000000001
 40
1.0
 40
1.0
 40
1.0
 40
1.0
 10
200.7619742612001
 20
341.7087880390561
 30
0.0
 10
199.935166149102
 20
341.7087880390561
 30
0.0
 10
199.0984993819767
 20
341.7087880390561
 30
0.0
 10
197.8199362444292
 20
341.7087880390561
 30
0.0
 10
197.3904078636318
 20
341.7087880390561
 30
0.0
 10
196.5351030478717
 20
341.7087880390561
 30
0.0
 10
196.1079153310675
 20
341.7087880390561
 30
0.0
 10
194.8277720893494
 20
341.7087880390561
 30
0.0
 10
193.9762274633624
 20
341.7087880390561
 30
0.0
 10
192.7016467627007
 20
341.7087880390561
 30
0.0
 10
192.2771188479701
 20
341.7087880390561
 30
0.0
 10
191.4376674275602
 20
341.7087880390561
 30
0.0
 10
191.0214539082285
 20
341.7087880390561
 30
0.0
 10
190.6079493924507
 20
341.7087880390561
 30
0.0
  0
SPLINE
  5
87
330
1F
100
AcDbEntity
  8
0
  6
Continuous
 62
     7
370
    15
100
AcDbSpline
210
0.0
220
0.0
230
1.0
 70
    24
 71
     3
 72
    28
 73
    24
 74
     0
 42
0.00000001
 43
0.00000001
 40
0.0
 40
0.0
 40
0.0
 40
0.0
 40
0.1250000000000003
 40
0.1250000000000003
 40
0.2500000000000007
 40
0.2500000000000007
 40
0.375000000000001
 40
0.375000000000001
 40
0.5000000000000013
 40
0.5000000000000013
 40
0.5625000000000004
 40
0.5625000000000004
 40
0.6249999999999997
 40
0.6249999999999997
 40
0.7499999999999998
 40
0.7499999999999998
 40
0.8124999999999998
 40
0.8124999999999998
 40
0.8749999999999999
 40
0.8749999999999999
 40
0.9374999999999999
 40
0.9374999999999999
 40
1.0
 40
1.0
 40
1.0
 40
1.0
 10
209.5795086292219
 20
341.7087880390561
 30
0.0
 10
209.5790166919821
 20
341.7087880390561
 30
0.0
 10
209.5295515001168
 20
341.7087880390561
 30
0.0
 10
209.3464544865029
 20
341.7087880390561
 30
0.0
 10
209.2145173346881
 20
341.7087880390561
 30
0.0
 10
208.8564838889743
 20
341.7087880390561
 30
0.0
 10
208.629806459775
 20
341.7087880390561
 30
0.0
 10
208.080938273686
 20
341.7087880390561
 30
0.0
 10
207.7576943122027
 20
341.7087880390561
 30
0.0
 10
207.1914307949067
 20
341.7087880390561
 30
0.0
 10
206.988353711243
 20
341.708788039056
 30
0.0
 10
206.5573612264117
 20
341.708788039056
 30
0.0
 10
206.3307035427518
 20
341.7087880390561
 30
0.0
 10
205.6178726080973
 20
341.7087880390561
 30
0.0
 10
205.0991536315848
 20
341.708788039056
 30
0.0
 10
204.2542543661213
 20
341.708788039056
 30
0.0
 10
203.9605848024526
 20
341.7087880390561
 30
0.0
 10
203.3612203390302
 20
341.7087880390561
 30
0.0
 10
203.05436006434
 20
341.7087880390561
 30
0.0
 10
202.4259762978189
 20
341.7087880390561
 30
0.0
 10
202.1044231120055
 20
341.7087880390561
 30
0.0
 10
201.4456623922969
 20
341.7087880390561
 30
0.0
 10
201.1073544605017
 20
341.7087880390561
 30
0.0
 10
200.7620335996846
 20
341.7087880390561
 30
0.0
  0
SPLINE
  5
88
330
1F
100
AcDbEntity
  8
0
  6
Continuous
 62
     7
370
    15
100
AcDbSpline
210
0.0
220
0.0
230
1.0
 70
    24
 71
     3
 72
    30
 73
    26
 74
     0
 42
0.00000001
 43
0.00000001
 40
0.0
 40
0.0
 40
0.0
 40
0.0
 40
0.0624999999999998
 40
0.0624999999999998
 40
0.1249999999999997
 40
0.1249999999999997
 40
0.1874999999999993
 40
0.1874999999999993
 40
0.2499999999999989
 40
0.2499999999999989
 40
0.3749999999999991
 40
0.3749999999999991
 40
0.4375
 40
0.4375
 40
0.5000000000000008
 40
0.5000000000000008
 40
0.6250000000000003
 40
0.6250000000000003
 40
0.6875000000000003
 40
0.6875000000000003
 40
0.7500000000000002
 40
0.7500000000000002
 40
0.8750000000000001
 40
0.8750000000000001
 40
1.0
 40
1.0
 40
1.0
 40
1.0
 10
190.6079689615082
 20
341.7087880390561
 30
0.0
 10
190.2626015574466
 20
341.7087880390561
 30
0.0
 10
189.9233943938263
 20
341.7087880390561
 30
0.0
 10
189.2601741852838
 20
341.7087880390561
 30
0.0
 10
188.9354219036231
 20
341.7087880390561
 30
0.0
 10
188.2999550275676
 20
341.7087880390561
 30
0.0
 10
187.9884611564009
 20
341.7087880390561
 30
0.0
 10
187.3899516634935
 20
341.7087880390561
 30
0.0
 10
187.1014949631389
 20
341.7087880390561
 30
0.0
 10
186.2667213830495
 20
341.7087880390561
 30
0.0
 10
185.7507314294397
 20
341.7087880390561
 30
0.0
 10
185.0377847524214
 20
341.7087880390561
 30
0.0
 10
184.8094000563872
 20
341.708788039056
 30
0.0
 10
184.3812482527412
 20
341.708788039056
 30
0.0
 10
184.1808503906374
 20
341.7087880390561
 30
0.0
 10
183.6189538420272
 20
341.7087880390561
 30
0.0
 10
183.2969049318565
 20
341.7087880390561
 30
0.0
 10
182.8848286814651
 20
341.7087880390561
 30
0.0
 10
182.7588663479178
 20
341.7087880390561
 30
0.0
 10
182.531475995088
 20
341.7087880390561
 30
0.0
 10
182.4299360178847
 20
341.708788039056
 30
0.0
 10
182.159391212987
 20
341.708788039056
 30
0.0
 10
182.0250558345888
 20
341.7087880390561
 30
0.0
 10
181.8386766881474
 20
341.7087880390561
 30
0.0
 10
181.7887377900715
 20
341.7087880390561
 30
0.0
 10
181.788250439138
 20
341.7087880390561
 30
0.0
  0
LINE
  5
89
330
1F
100
AcDbEntity
  8
0
  6
Continuous
 62
     7
370
    15
100
AcDbLine
 10
207.7178833028
 20
337.4219703569
 30
0.0
 11
200.4921023222
 21
337.4219703569
 31
0.0
  0
LINE
  5
8A
330
1F
100
AcDbEntity
  8
0
  6
Continuous
 62
     7
370
    15
100
AcDbLine
 10
200.4921023222
 20
337.4219703569
 30
0.0
 11
200.4921023222
 21
340.8548879984
 31
0.0
  0
LINE
  5
8B
330
1F
100
AcDbEntity
  8
0
  6
Continuous
 62
     7
370
    15
100
AcDbLine
 10
190.8716639923
 20
340.8548879984
 30
0.0
 11
200.4921023222
 21
340.8548879984
 31
0.0
  0
LINE
  5
8C
330
1F
100
AcDbEntity
  8
0
  6
Continuous
 62
     7
370
    15
100
AcDbLine
 10
190.8716639923
 20
340.8548879984
 30
0.0
 11
190.8716639923
 21
337.4219703569
 31
0.0
  0
LINE
  5
8D
330
1F
100
AcDbEntity
  8
0
  6
Continuous
 62
     7
370
    15
100
AcDbLine
 10
190.8716639923
 20
337.4219703569
 30
0.0
 11
183.6458832445
 21
337.4219703569
 31
0.0
  0
LINE
  5
8E
330
1F
100
AcDbEntity
  8
0
  6
Continuous
 62
     7
370
    15
100
AcDbLine
 10
195.6818836229
 20
336.8428880663
 30
0.0
 11
184.6488841297
 21
336.8428880663
 31
0.0
  0
SPLINE
  5
8F
330
1F
100
AcDbEntity
  8
0
  6
Continuous
 62
     7
370
    15
100
AcDbSpline
210
0.0
220
0.0
230
1.0
 70
     8
 71
     3
 72
     8
 73
     4
 74
     0
 42
0.00000001
 43
0.00000001
 40
0.0
 40
0.0
 40
0.0
 40
0.0
 40
1.0
 40
1.0
 40
1.0
 40
1.0
 10
190.8716642195051
 20
337.4219703944724
 30
0.0
 10
192.4571930132265
 20
337.056126191326
 30
0.0
 10
194.0585085987658
 20
336.8428880744751
 30
0.0
 10
195.6818832373879
 20
336.8428880744751
 30
0.0
  0
SPLINE
  5
90
330
1F
100
AcDbEntity
  8
0
  6
Continuous
 62
     7
370
    15
100
AcDbSpline
210
0.0
220
0.0
230
1.0
 70
     8
 71
     3
 72
    10
 73
     6
 74
     0
 42
0.00000001
 43
0.00000001
 40
0.0
 40
0.0
 40
0.0
 40
0.0
 40
0.5
 40
0.5
 40
1.0
 40
1.0
 40
1.0
 40
1.0
 10
195.6818832373879
 20
336.8428880744751
 30
0.0
 10
196.4916802132175
 20
336.8428880744751
 30
0.0
 10
197.3109668584718
 20
336.8960105979431
 30
0.0
 10
198.9172408588932
 20
337.0956580771551
 30
0.0
 10
199.7090194585845
 20
337.2412822209835
 30
0.0
 10
200.49210225527
 20
337.421970394472
 30
0.0
  0
LINE
  5
91
330
1F
100
AcDbEntity
  8
0
  6
Continuous
 62
     7
370
    15
100
AcDbLine
 10
206.7148833489
 20
336.8428880663
 30
0.0
 11
195.6818836229
 21
336.8428880663
 31
0.0
  0
LINE
  5
92
330
1F
100
AcDbEntity
  8
0
  6
Continuous
 62
     7
370
    15
100
AcDbLine
 10
214.6671271371
 20
353.7447887089
 30
0.0
 11
214.6671271371
 21
357.7568630304
 31
0.0
  0
LINE
  5
93
330
1F
100
AcDbEntity
  8
0
  6
Continuous
 62
     7
370
    15
100
AcDbLine
 10
176.700630826
 20
357.7567885246
 30
0.0
 11
176.700630826
 21
353.7447887089
 31
0.0
  0
LINE
  5
94
330
1F
100
AcDbEntity
  8
0
  6
Continuous
 62
     7
370
    15
100
AcDbLine
 10
212.081572176
 20
366.7837871786
 30
0.0
 11
212.7614995884
 21
366.7837871786
 31
0.0
  0
LINE
  5
95
330
1F
100
AcDbEntity
  8
0
  6
Continuous
 62
     7
370
    15
100
AcDbLine
 10
178.6062583746
 20
366.7837871786
 30
0.0
 11
179.2861853214
 21
366.7837871786
 31
0.0
  0
SPLINE
  5
96
330
1F
100
AcDbEntity
  8
0
  6
Continuous
 62
     7
370
    15
100
AcDbSpline
210
0.0
220
0.0
230
1.0
 70
     8
 71
     3
 72
    22
 73
    18
 74
     0
 42
0.00000001
 43
0.00000001
 40
0.0
 40
0.0
 40
0.0
 40
0.0
 40
0.0227418278730385
 40
0.0456147710076864
 40
0.0686378148425368
 40
0.0918297962072138
 40
0.1152094020180593
 40
0.1387951596818221
 40
0.162605428006739
 40
0.2423106356779714
 40
0.322443683161548
 40
0.4780881366348361
 40
0.6340470601637358
 40
0.788633631241345
 40
0.9399734473817013
 40
0.9701216745765875
 40
0.9999999999999999
 40
0.9999999999999999
 40
0.9999999999999999
 40
0.9999999999999999
 10
214.6671064444212
 20
353.744390957525
 30
0.0
 10
214.6667029890153
 20
353.6290997113704
 30
0.0
 10
214.6658937521302
 20
353.3978525213076
 30
0.0
 10
214.6574894250678
 20
353.0523491731618
 30
0.0
 10
214.6437369377792
 20
352.7067567740119
 30
0.0
 10
214.6240399710229
 20
352.3612557550967
 30
0.0
 10
214.5984645180392
 20
352.0158268112212
 30
0.0
 10
214.5668993643878
 20
351.6705036876784
 30
0.0
 10
214.5000106561885
 20
351.0564211182617
 30
0.0
 10
214.3718093099601
 20
350.1892668326396
 30
0.0
 10
214.0779050509264
 20
348.7680246199799
 30
0.0
 10
213.5962821947062
 20
347.1380325753155
 30
0.0
 10
212.9158845103727
 20
345.4562650177674
 30
0.0
 10
212.208198464084
 20
344.0505570178573
 30
0.0
 10
211.7292803736867
 20
343.2366523044633
 30
0.0
 10
211.4605189989198
 20
342.8052070777455
 30
0.0
 10
211.388696846304
 20
342.692632160814
 30
0.0
 10
211.3529472395905
 20
342.6365977917577
 30
0.0
  0
SPLINE
  5
97
330
1F
100
AcDbEntity
  8
0
  6
Continuous
 62
     7
370
    15
100
AcDbSpline
210
0.0
220
0.0
230
1.0
 70
     8
 71
     3
 72
    33
 73
    29
 74
     0
 42
0.00000001
 43
0.00000001
 40
0.0
 40
0.0
 40
0.0
 40
0.0
 40
0.0202293603055671
 40
0.0404485199562673
 40
0.0607049242226467
 40
0.0818374517876598
 40
0.1240352260637932
 40
0.1554282256733588
 40
0.2024727755811407
 40
0.2181481258945101
 40
0.249492330023028
 40
0.2964115868386222
 40
0.312061193313777
 40
0.3747376438656996
 40
0.4376333442166754
 40
0.4534030537667844
 40
0.500833421134855
 40
0.5849927579627713
 40
0.668580580215776
 40
0.6890781404289615
 40
0.7509051938252878
 40
0.7709088028767334
 40
0.8312692218248947
 40
0.9095601458248155
 40
0.9208292333398602
 40
0.9547473176721436
 40
0.9774013882809542
 40
1.0
 40
1.0
 40
1.0
 40
1.0
 10
180.0146825302271
 20
342.6370101869939
 30
0.0
 10
179.9906533573646
 20
342.6746474506007
 30
0.0
 10
179.9426071283498
 20
342.7499029992244
 30
0.0
 10
179.8671769477276
 20
342.8698274892595
 30
0.0
 10
179.788406225458
 20
342.996586946135
 30
0.0
 10
179.6783763083092
 20
343.1762030257065
 30
0.0
 10
179.5488527788897
 20
343.3925914883351
 30
0.0
 10
179.3783318276982
 20
343.6867498128486
 30
0.0
 10
179.2414661671621
 20
343.9314331778994
 30
0.0
 10
179.1024852963617
 20
344.1877288004767
 30
0.0
 10
178.9622844877212
 20
344.4524194956344
 30
0.0
 10
178.8205795323616
 20
344.731421727962
 30
0.0
 10
178.6313860994163
 20
345.1184013648241
 30
0.0
 10
178.4183128972879
 20
345.5758679465675
 30
0.0
 10
178.2095912735033
 20
346.0665889851144
 30
0.0
 10
178.0280800271594
 20
346.5221508737595
 30
0.0
 10
177.8208042600262
 20
347.0712155386491
 30
0.0
 10
177.5373302394947
 20
347.9226175259602
 30
0.0
 10
177.3199838831912
 20
348.7198444739799
 30
0.0
 10
177.1492823385258
 20
349.4483347510963
 30
0.0
 10
177.0544715777453
 20
349.9103401807589
 30
0.0
 10
176.9399348430029
 20
350.5676846781202
 30
0.0
 10
176.8326314108236
 20
351.3177455729098
 30
0.0
 10
176.7623903997325
 20
352.0503985228549
 30
0.0
 10
176.7255126587952
 20
352.6628302936647
 30
0.0
 10
176.7115610371752
 20
353.0018339395147
 30
0.0
 10
176.7029281642662
 20
353.4003185728865
 30
0.0
 10
176.7010169497406
 20
353.6297929217445
 30
0.0
 10
176.700062513611
 20
353.744389481386
 30
0.0
  0
SPLINE
  5
98
330
1F
100
AcDbEntity
  8
0
  6
Continuous
 62
     7
370
    15
100
AcDbSpline
210
0.0
220
0.0
230
1.0
 70
     8
 71
     3
 72
     8
 73
     4
 74
     0
 42
0.00000001
 43
0.00000001
 40
0.0
 40
0.0
 40
0.0
 40
0.0
 40
0.0000974462047406
 40
0.0000974462047406
 40
0.0000974462047406
 40
0.0000974462047406
 10
180.0358374717391
 20
342.6045003625476
 30
0.0
 10
180.0292949844761
 20
342.614276121554
 30
0.0
 10
180.0224105665926
 20
342.6247487104322
 30
0.0
 10
180.0150647803787
 20
342.6361975515658
 30
0.0
  0
SPLINE
  5
99
330
1F
100
AcDbEntity
  8
0
  6
Continuous
 62
     7
370
    15
100
AcDbSpline
210
0.0
220
0.0
230
1.0
 70
     8
 71
     3
 72
    18
 73
    14
 74
     0
 42
0.00000001
 43
0.00000001
 40
0.0
 40
0.0
 40
0.0
 40
0.0
 40
0.25
 40
0.25
 40
0.5
 40
0.5
 40
0.75
 40
0.75
 40
0.875
 40
0.875
 40
0.9375
 40
0.9375
 40
1.0
 40
1.0
 40
1.0
 40
1.0
 10
180.0358374717391
 20
342.6045003625476
 30
0.0
 10
180.1060258820466
 20
342.4996251130255
 30
0.0
 10
180.1954217985278
 20
342.3878647269282
 30
0.0
 10
180.4138065146264
 20
342.1749722462009
 30
0.0
 10
180.543066422459
 20
342.0742772895222
 30
0.0
 10
180.8237242341911
 20
341.9077799588897
 30
0.0
 10
180.9725419610394
 20
341.8425720511647
 30
0.0
 10
181.2023140382014
 20
341.7727231995364
 30
0.0
 10
181.2790503109949
 20
341.7539320193293
 30
0.0
 10
181.4092991214654
 20
341.7312107552866
 30
0.0
 10
181.4557772557242
 20
341.7244068555974
 30
0.0
 10
181.5665605858343
 20
341.713290319175
 30
0.0
 10
181.6334412579899
 20
341.708788039044
 30
0.0
 10
181.7120759718725
 20
341.7087880390561
 30
0.0
  0
SPLINE
  5
9A
330
1F
100
AcDbEntity
  8
0
  6
Continuous
 62
     7
370
    15
100
AcDbSpline
210
0.0
220
0.0
230
1.0
 70
     8
 71
     3
 72
    18
 73
    14
 74
     0
 42
0.00000001
 43
0.00000001
 40
0.0
 40
0.0
 40
0.0
 40
0.0
 40
0.0624999999999997
 40
0.0624999999999997
 40
0.1249999999999994
 40
0.1249999999999994
 40
0.2499999999999986
 40
0.2499999999999986
 40
0.4999999999999991
 40
0.4999999999999991
 40
0.7499999999999996
 40
0.7499999999999996
 40
1.0
 40
1.0
 40
1.0
 40
1.0
 10
209.6556813961012
 20
341.7087880390561
 30
0.0
 10
209.7344445486183
 20
341.7087880390561
 30
0.0
 10
209.799971516594
 20
341.7131916579281
 30
0.0
 10
209.9114741130135
 20
341.7243313259426
 30
0.0
 10
209.9572730008325
 20
341.7310283377287
 30
0.0
 10
210.087766754581
 20
341.7537172994453
 30
0.0
 10
210.1650887311238
 20
341.7726019614126
 30
0.0
 10
210.3967555754043
 20
341.8430629765442
 30
0.0
 10
210.5464719259071
 20
341.9090331999902
 30
0.0
 10
210.8257998866661
 20
342.0751285720946
 30
0.0
 10
210.9540537388822
 20
342.175086125644
 30
0.0
 10
211.1720348911479
 20
342.3875566211802
 30
0.0
 10
211.2616019149557
 20
342.4994214888251
 30
0.0
 10
211.3319689450252
 20
342.604574000549
 30
0.0
  0
SPLINE
  5
9B
330
1F
100
AcDbEntity
  8
0
  6
Continuous
 62
     7
370
    15
100
AcDbSpline
210
0.0
220
0.0
230
1.0
 70
     8
 71
     3
 72
     8
 73
     4
 74
     0
 42
0.00000001
 43
0.00000001
 40
0.0
 40
0.0
 40
0.0
 40
0.0
 40
0.0000972285460187
 40
0.0000972285460187
 40
0.0000972285460187
 40
0.0000972285460187
 10
211.3526999646199
 20
342.6362094274432
 30
0.0
 10
211.3453699686974
 20
342.624785012145
 30
0.0
 10
211.3384991736063
 20
342.6143324049716
 30
0.0
 10
211.3319689450252
 20
342.6045740005489
 30
0.0
  0
SPLINE
  5
9C
330
1F
100
AcDbEntity
  8
0
  6
Continuous
 62
     7
370
    15
100
AcDbSpline
210
0.0
220
0.0
230
1.0
 70
     8
 71
     3
 72
     8
 73
     4
 74
     0
 42
0.00000001
 43
0.00000001
 40
0.0
 40
0.0
 40
0.0
 40
0.0
 40
1.0
 40
1.0
 40
1.0
 40
1.0
 10
195.6838494463217
 20
414.3778333164073
 30
0.0
 10
196.0203283392712
 20
414.3777625760612
 30
0.0
 10
196.3568756981171
 20
414.3779059978731
 30
0.0
 10
196.6934344190846
 20
414.37808496054
 30
0.0
  0
SPLINE
  5
9D
330
1F
100
AcDbEntity
  8
0
  6
Continuous
 62
     7
370
    15
100
AcDbSpline
210
0.0
220
0.0
230
1.0
 70
     8
 71
     3
 72
     8
 73
     4
 74
     0
 42
0.00000001
 43
0.00000001
 40
0.0
 40
0.0
 40
0.0
 40
0.0
 40
1.0
 40
1.0
 40
1.0
 40
1.0
 10
194.6743675192629
 20
414.3780849374937
 30
0.0
 10
195.0108919006631
 20
414.3779059933574
 30
0.0
 10
195.3474049199462
 20
414.3777625900616
 30
0.0
 10
195.6838494871081
 20
414.3778333058353
 30
0.0
  0
SPLINE
  5
9E
330
1F
100
AcDbEntity
  8
0
  6
Continuous
 62
     7
370
    15
100
AcDbSpline
210
0.0
220
0.0
230
1.0
 70
     8
 71
     3
 72
    13
 73
     9
 74
     0
 42
0.00000001
 43
0.00000001
 40
0.0
 40
0.0
 40
0.0
 40
0.0
 40
0.1677791485559111
 40
0.3347226738090573
 40
0.5011216997677512
 40
0.6672712574930296
 40
0.8334663808474798
 40
1.0
 40
1.0
 40
1.0
 40
1.0
 10
187.6598785797729
 20
413.335185429211
 30
0.0
 10
187.6607117856302
 20
413.3498433930448
 30
0.0
 10
187.6623740475669
 20
413.3790863167888
 30
0.0
 10
187.6759460014163
 20
413.4228250911291
 30
0.0
 10
187.6975942882748
 20
413.4662969843282
 30
0.0
 10
187.7283049036041
 20
413.5095034134623
 30
0.0
 10
187.7670959070711
 20
413.5524854711588
 30
0.0
 10
187.8002546602146
 20
413.580838468809
 30
0.0
 10
187.8168509035267
 20
413.5950293898485
 30
0.0
  0
SPLINE
  5
9F
330
1F
100
AcDbEntity
  8
0
  6
Continuous
 62
     7
370
    15
100
AcDbSpline
210
0.0
220
0.0
230
1.0
 70
     8
 71
     3
 72
    13
 73
     9
 74
     0
 42
0.00000001
 43
0.00000001
 40
0.0
 40
0.0
 40
0.0
 40
0.0
 40
0.1665333330986997
 40
0.3327285046724833
 40
0.4988782813350469
 40
0.6652775310858494
 40
0.8322211178180602
 40
1.0
 40
1.0
 40
1.0
 40
1.0
 10
203.5509940561016
 20
413.5949580458719
 30
0.0
 10
203.5675810203615
 20
413.580770897799
 30
0.0
 10
203.6007212674973
 20
413.5524254099858
 30
0.0
 10
203.6394905398159
 20
413.5094550181373
 30
0.0
 10
203.6701839665813
 20
413.466260418659
 30
0.0
 10
203.6918201355319
 20
413.4228005470115
 30
0.0
 10
203.7053845001608
 20
413.379073983261
 30
0.0
 10
203.7070458379534
 20
413.3498392655102
 30
0.0
 10
203.7078785797729
 20
413.335185429211
 30
0.0
  0
LINE
  5
A0
330
1F
100
AcDbEntity
  8
0
  6
Continuous
 62
     7
370
    15
100
AcDbLine
 10
185.6538780453
 20
415.2975721832
 30
0.0
 11
185.6538780453
 21
418.4692619915
 31
0.0
  0
LINE
  5
A1
330
1F
100
AcDbEntity
  8
0
  6
Continuous
 62
     7
370
    15
100
AcDbLine
 10
205.7138786372
 20
415.2975721832
 30
0.0
 11
205.7138786372
 21
418.4692619915
 31
0.0
  0
SPLINE
  5
A2
330
1F
100
AcDbEntity
  8
0
  6
Continuous
 62
     7
370
    15
100
AcDbSpline
210
0.0
220
0.0
230
1.0
 70
     8
 71
     3
 72
     9
 73
     5
 74
     0
 42
0.00000001
 43
0.00000001
 40
0.0
 40
0.0
 40
0.0
 40
0.0
 40
0.3722277729032663
 40
1.0
 40
1.0
 40
1.0
 40
1.0
 10
195.6837732764043
 20
414.3871782894615
 30
0.0
 10
195.6837928169189
 20
414.3660047917086
 30
0.0
 10
195.6838453130409
 20
414.3091216161528
 30
0.0
 10
195.683918348131
 20
414.3513211895051
 30
0.0
 10
195.6839641975321
 20
414.3778129096511
 30
0.0
  0
SPLINE
  5
A3
330
1F
100
AcDbEntity
  8
0
  6
Continuous
 62
     7
370
     0
100
AcDbSpline
210
0.0
220
0.0
230
1.0
 70
     8
 71
     3
 72
     8
 73
     4
 74
     0
 42
0.00000001
 43
0.00000001
 40
0.0
 40
0.0
 40
0.0
 40
0.0
 40
1.0
 40
1.0
 40
1.0
 40
1.0
 10
187.6598785797729
 20
412.7598812173986
 30
0.0
 10
187.6596683948687
 20
412.9185197743719
 30
0.0
 10
187.6597423569063
 20
413.0762695162489
 30
0.0
 10
187.6598785797729
 20
413.2338245054946
 30
0.0
  0
SPLINE
  5
A4
330
1F
100
AcDbEntity
  8
0
  6
Continuous
 62
     7
370
     0
100
AcDbSpline
210
0.0
220
0.0
230
1.0
 70
     8
 71
     3
 72
     8
 73
     4
 74
     0
 42
0.00000001
 43
0.00000001
 40
0.0
 40
0.0
 40
0.0
 40
0.0
 40
1.0
 40
1.0
 40
1.0
 40
1.0
 10
203.7078785797729
 20
413.233824505503
 30
0.0
 10
203.7080148026394
 20
413.0762695162545
 30
0.0
 10
203.7080887646771
 20
412.9185197743748
 30
0.0
 10
203.7078785797729
 20
412.7598812173986
 30
0.0
  0
LINE
  5
A5
330
1F
100
AcDbEntity
  8
0
  6
Continuous
 62
     7
370
    15
100
AcDbLine
 10
185.6538780453
 20
405.4125441785
 30
0.0
 11
185.6538780453
 21
415.2975721832
 31
0.0
  0
LINE
  5
A6
330
1F
100
AcDbEntity
  8
0
  6
Continuous
 62
     7
370
    15
100
AcDbLine
 10
205.7138786372
 20
415.2975721832
 30
0.0
 11
205.7138786372
 21
405.4125441785
 31
0.0
  0
LINE
  5
A7
330
1F
100
AcDbEntity
  8
0
  6
Continuous
 62
     7
370
    15
100
AcDbLine
 10
205.1622285694
 20
321.3478882413
 30
0.0
 11
186.2055283459
 21
321.3478882413
 31
0.0
  0
LINE
  5
A8
330
1F
100
AcDbEntity
  8
0
  6
Continuous
 62
     7
370
    15
100
AcDbLine
 10
195.6838785159
 20
373.0048208113
 30
0.0
 11
187.8359165462
 21
373.0048208113
 31
0.0
  0
LINE
  5
A9
330
1F
100
AcDbEntity
  8
0
  6
Continuous
 62
     7
370
    15
100
AcDbLine
 10
203.5318397288
 20
373.0048208113
 30
0.0
 11
195.6838785159
 21
373.0048208113
 31
0.0
  0
SPLINE
  5
AA
330
1F
100
AcDbEntity
  8
0
  6
Continuous
 62
     7
370
     0
100
AcDbSpline
210
0.0
220
0.0
230
1.0
 70
     8
 71
     3
 72
    16
 73
    12
 74
     0
 42
0.00000001
 43
0.00000001
 40
0.0
 40
0.0
 40
0.0
 40
0.0
 40
0.1250000000000001
 40
0.1250000000000001
 40
0.2500000000000002
 40
0.2500000000000002
 40
0.5000000000000001
 40
0.5000000000000001
 40
0.7500000000000001
 40
0.7500000000000001
 40
1.0
 40
1.0
 40
1.0
 40
1.0
 10
223.1922777264014
 20
335.6167285963819
 30
0.0
 10
223.1941375599747
 20
336.5379581913156
 30
0.0
 10
223.1918667429187
 20
337.4620163871628
 30
0.0
 10
223.1922042136943
 20
339.3067916489042
 30
0.0
 10
223.1926247932176
 20
340.2290068210958
 30
0.0
 10
223.1919672804784
 20
342.9969666090755
 30
0.0
 10
223.1920731478965
 20
344.8419004689478
 30
0.0
 10
223.1923842673105
 20
348.5317001317847
 30
0.0
 10
223.1920741692585
 20
350.3769188378989
 30
0.0
 10
223.1925804160548
 20
354.0665848807469
 30
0.0
 10
223.1913472992677
 20
355.9124356547539
 30
0.0
 10
223.1921287658369
 20
357.7569068755534
 30
0.0
  0
SPLINE
  5
AB
330
1F
100
AcDbEntity
  8
0
  6
Continuous
 62
     7
370
     0
100
AcDbSpline
210
0.0
220
0.0
230
1.0
 70
     8
 71
     3
 72
    22
 73
    18
 74
     0
 42
0.00000001
 43
0.00000001
 40
0.0
 40
0.0
 40
0.0
 40
0.0
 40
0.0261503794966084
 40
0.0520792933173277
 40
0.0778080741881619
 40
0.1033481607849915
 40
0.1796265308441401
 40
0.2547535244826631
 40
0.3290888980138936
 40
0.4775906656767826
 40
0.6275239597006076
 40
0.7035461472050789
 40
0.7790258428660913
 40
0.8561364619867842
 40
0.9031977515240628
 40
0.9511242316950828
 40
1.0
 40
1.0
 40
1.0
 40
1.0
 10
216.8894230797912
 20
324.7823129955042
 30
0.0
 10
216.9884533640096
 20
324.8396647849647
 30
0.0
 10
217.1856752521193
 20
324.9538826557216
 30
0.0
 10
217.4742395855785
 20
325.1347161127763
 30
0.0
 10
217.7558975696733
 20
325.3212857930915
 30
0.0
 10
218.2125992718106
 20
325.6422079919225
 30
0.0
 10
218.8221094950777
 20
326.1212323712717
 30
0.0
 10
219.5483938744069
 20
326.7923045438749
 30
0.0
 10
220.434657714468
 20
327.7501945079634
 30
0.0
 10
221.3978885904575
 20
329.0753977089793
 30
0.0
 10
222.1459538349596
 20
330.5414661814406
 30
0.0
 10
222.6008527262291
 20
331.7808784900682
 30
0.0
 10
222.8707821941963
 20
332.7452259940756
 30
0.0
 10
223.0385145341032
 20
333.6037333228781
 30
0.0
 10
223.1328456500441
 20
334.3511096638956
 30
0.0
 10
223.1822311582234
 20
334.9791044575286
 30
0.0
 10
223.1889069105008
 20
335.4027342231577
 30
0.0
 10
223.1922775194145
 20
335.6166262618029
 30
0.0
  0
SPLINE
  5
AC
330
1F
100
AcDbEntity
  8
0
  6
Continuous
 62
     7
370
     0
100
AcDbSpline
210
0.0
220
0.0
230
1.0
 70
     8
 71
     3
 72
     9
 73
     5
 74
     0
 42
0.00000001
 43
0.00000001
 40
0.0
 40
0.0
 40
0.0
 40
0.0
 40
0.5027072178635693
 40
1.0
 40
1.0
 40
1.0
 40
1.0
 10
216.8893988696715
 20
324.7821633738378
 30
0.0
 10
216.8364525232316
 20
324.9275695637787
 30
0.0
 10
216.731130091887
 20
325.2168158382977
 30
0.0
 10
216.6260705283325
 20
325.505369598824
 30
0.0
 10
216.5738251656825
 20
325.6488653011921
 30
0.0
  0
SPLINE
  5
AD
330
1F
100
AcDbEntity
  8
0
  6
Continuous
 62
     7
370
     0
100
AcDbSpline
210
0.0
220
0.0
230
1.0
 70
     8
 71
     3
 72
    22
 73
    18
 74
     0
 42
0.00000001
 43
0.00000001
 40
0.0
 40
0.0
 40
0.0
 40
0.0
 40
0.1250000000000001
 40
0.1250000000000001
 40
0.2500000000000002
 40
0.2500000000000002
 40
0.3750000000000002
 40
0.3750000000000002
 40
0.5000000000000004
 40
0.5000000000000004
 40
0.6250000000000007
 40
0.6250000000000007
 40
0.6875000000000002
 40
0.6875000000000002
 40
0.7499999999999999
 40
0.7499999999999999
 40
1.0
 40
1.0
 40
1.0
 40
1.0
 10
168.1756278487113
 20
335.6167242626211
 30
0.0
 10
168.183313052884
 20
335.0649051786884
 30
0.0
 10
168.2117932195402
 20
334.516718574279
 30
0.0
 10
168.3523057563715
 20
333.4349403265543
 30
0.0
 10
168.4622163798124
 20
332.9009780549404
 30
0.0
 10
168.7497213552664
 20
331.8448765557932
 30
0.0
 10
168.9277361528093
 20
331.3186027350733
 30
0.0
 10
169.3487432665034
 20
330.3051249897414
 30
0.0
 10
169.5932801879957
 20
329.8178001624453
 30
0.0
 10
170.142070909991
 20
328.8772154970343
 30
0.0
 10
170.445266421629
 20
328.4233519669764
 30
0.0
 10
170.9498446535207
 20
327.7709560842995
 30
0.0
 10
171.1269776364484
 20
327.5576601797703
 30
0.0
 10
171.4921043016148
 20
327.1465807822325
 30
0.0
 10
171.6805506979265
 20
326.9480577306776
 30
0.0
 10
172.6510212079149
 20
325.9891221678677
 30
0.0
 10
173.5170546731541
 20
325.3289064264915
 30
0.0
 10
174.4784369931365
 20
324.7824119206589
 30
0.0
  0
SPLINE
  5
AE
330
1F
100
AcDbEntity
  8
0
  6
Continuous
 62
     7
370
     0
100
AcDbSpline
210
0.0
220
0.0
230
1.0
 70
     8
 71
     3
 72
    16
 73
    12
 74
     0
 42
0.00000001
 43
0.00000001
 40
0.0
 40
0.0
 40
0.0
 40
0.0
 40
0.25
 40
0.25
 40
0.5
 40
0.5
 40
0.75
 40
0.75
 40
0.875
 40
0.875
 40
1.0
 40
1.0
 40
1.0
 40
1.0
 10
168.1756283884981
 20
357.756906851515
 30
0.0
 10
168.1764058997367
 20
355.91243283644
 30
0.0
 10
168.1751775704515
 20
354.0665854995551
 30
0.0
 10
168.1756831799401
 20
350.3769189767194
 30
0.0
 10
168.1753770705979
 20
348.5317030483369
 30
0.0
 10
168.1756808857185
 20
344.8418983646631
 30
0.0
 10
168.1757857208894
 20
342.9969637941731
 30
0.0
 10
168.1751322792099
 20
340.2290068871586
 30
0.0
 10
168.1755553709992
 20
339.3067933882751
 30
0.0
 10
168.1758896509544
 20
337.4620159097983
 30
0.0
 10
168.1736193646491
 20
336.5379583585914
 30
0.0
 10
168.1754799482295
 20
335.6167290550136
 30
0.0
  0
SPLINE
  5
AF
330
1F
100
AcDbEntity
  8
0
  6
Continuous
 62
     7
370
     0
100
AcDbSpline
210
0.0
220
0.0
230
1.0
 70
     8
 71
     3
 72
     9
 73
     5
 74
     0
 42
0.00000001
 43
0.00000001
 40
0.0
 40
0.0
 40
0.0
 40
0.0
 40
0.5026928849150306
 40
0.9999999999999999
 40
0.9999999999999999
 40
0.9999999999999999
 40
0.9999999999999999
 10
174.4783873141551
 20
324.7822442656845
 30
0.0
 10
174.5310271084747
 20
324.9268109505571
 30
0.0
 10
174.6357427229169
 20
325.2143954563473
 30
0.0
 10
174.7401932418137
 20
325.5012982796254
 30
0.0
 10
174.7921372280354
 20
325.6439770949796
 30
0.0
  0
SPLINE
  5
B0
330
1F
100
AcDbEntity
  8
0
  6
Continuous
 62
     7
370
     0
100
AcDbSpline
210
0.0
220
0.0
230
1.0
 70
     8
 71
     3
 72
    21
 73
    17
 74
     0
 42
0.00000001
 43
0.00000001
 40
0.0
 40
0.0
 40
0.0
 40
0.0
 40
0.0563186856677618
 40
0.1123416778998307
 40
0.1681132949162868
 40
0.2236784564235789
 40
0.2790825842908892
 40
0.3343714972739503
 40
0.3895913009286601
 40
0.4447882739904713
 40
0.5000087525959018
 40
0.6002504815649172
 40
0.7001045342693666
 40
0.7998365731265747
 40
0.8997132341943005
 40
0.9999999999999999
 40
0.9999999999999999
 40
0.9999999999999999
 40
0.9999999999999999
 10
210.7288787188328
 20
323.1538056542806
 30
0.0
 10
210.8498394759099
 20
323.1549779261184
 30
0.0
 10
211.0911259024122
 20
323.1573163149432
 30
0.0
 10
211.4518964924706
 20
323.1735900231009
 30
0.0
 10
211.8104664096363
 20
323.1992260143102
 30
0.0
 10
212.1668335943657
 20
323.2351270733452
 30
0.0
 10
212.5209975761265
 20
323.2810533762001
 30
0.0
 10
212.8729580357056
 20
323.3370678898542
 30
0.0
 10
213.2227123316563
 20
323.4031579653297
 30
0.0
 10
213.570266874089
 20
323.4793115528771
 30
0.0
 10
214.0092709957541
 20
323.5889934798074
 30
0.0
 10
214.5357882439169
 20
323.7431070511445
 30
0.0
 10
215.1440598651518
 20
323.9554162008445
 30
0.0
 10
215.7394927208678
 20
324.1991805732322
 30
0.0
 10
216.3235403298798
 20
324.4717782248533
 30
0.0
 10
216.7005419540851
 20
324.6785780235579
 30
0.0
 10
216.8894289759832
 20
324.7821897737427
 30
0.0
  0
SPLINE
  5
B1
330
1F
100
AcDbEntity
  8
0
  6
Continuous
 62
     7
370
     0
100
AcDbSpline
210
0.0
220
0.0
230
1.0
 70
     8
 71
     3
 72
     8
 73
     4
 74
     0
 42
0.00000001
 43
0.00000001
 40
0.0
 40
0.0
 40
0.0
 40
0.0
 40
1.0
 40
1.0
 40
1.0
 40
1.0
 10
180.6388787188368
 20
323.1538056690415
 30
0.0
 10
182.1768115554266
 20
323.1512103402162
 30
0.0
 10
183.7147456008099
 20
323.1531144220468
 30
0.0
 10
185.2526792500462
 20
323.1535439527052
 30
0.0
  0
SPLINE
  5
B2
330
1F
100
AcDbEntity
  8
0
  6
Continuous
 62
     7
370
     0
100
AcDbSpline
210
0.0
220
0.0
230
1.0
 70
     8
 71
     3
 72
     8
 73
     4
 74
     0
 42
0.00000001
 43
0.00000001
 40
0.0
 40
0.0
 40
0.0
 40
0.0
 40
1.0
 40
1.0
 40
1.0
 40
1.0
 10
206.1150786176804
 20
323.1535440220625
 30
0.0
 10
207.6530118458973
 20
323.1531144607504
 30
0.0
 10
209.1909446777995
 20
323.1512097236055
 30
0.0
 10
210.7288787188328
 20
323.1538056542806
 30
0.0
  0
SPLINE
  5
B3
330
1F
100
AcDbEntity
  8
0
  6
Continuous
 62
     7
370
     0
100
AcDbSpline
210
0.0
220
0.0
230
1.0
 70
     8
 71
     3
 72
    21
 73
    17
 74
     0
 42
0.00000001
 43
0.00000001
 40
0.0
 40
0.0
 40
0.0
 40
0.0
 40
0.0557680589365963
 40
0.1113777049281918
 40
0.1668741514434157
 40
0.2223028889635559
 40
0.2777095747432276
 40
0.3331399205282804
 40
0.3886395796025973
 40
0.4442540345548225
 40
0.5000284871353057
 40
0.5993740092737215
 40
0.69877554300901
 40
0.7985029892226695
 40
0.8988236183428415
 40
1.0
 40
1.0
 40
1.0
 40
1.0
 10
174.4783607252234
 20
324.7821712520602
 30
0.0
 10
174.5830049302388
 20
324.7238819874071
 30
0.0
 10
174.7919960913244
 20
324.6074690327013
 30
0.0
 10
175.1112420428105
 20
324.4444141804309
 30
0.0
 10
175.4340176894455
 20
324.2902277237788
 30
0.0
 10
175.7607759655581
 20
324.1457087607077
 30
0.0
 10
176.0913948757434
 20
324.0106438119013
 30
0.0
 10
176.425906804554
 20
323.8850918255037
 30
0.0
 10
176.7642999942776
 20
323.7690318214035
 30
0.0
 10
177.1065849281703
 20
323.6624900120045
 30
0.0
 10
177.5424148640182
 20
323.5402217874966
 30
0.0
 10
178.0745056924665
 20
323.4137906010819
 30
0.0
 10
178.7053715470957
 20
323.2982705837646
 30
0.0
 10
179.3434621178148
 20
323.2160359577431
 30
0.0
 10
179.9887603420662
 20
323.1642259475863
 30
0.0
 10
180.4215598971147
 20
323.1572889156875
 30
0.0
 10
180.6388787188368
 20
323.1538056690415
 30
0.0
  0
LINE
  5
B4
330
1F
100
AcDbEntity
  8
0
  6
Continuous
 62
     7
370
    15
100
AcDbLine
 10
212.7614995884
 20
366.7837871786
 30
0.0
 11
223.1923021795
 21
366.7837871786
 31
0.0
  0
LINE
  5
B5
330
1F
100
AcDbEntity
  8
0
  6
Continuous
 62
     7
370
    15
100
AcDbLine
 10
168.1754548522
 20
366.7837871786
 30
0.0
 11
178.6062583746
 21
366.7837871786
 31
0.0
  0
LINE
  5
B6
330
1F
100
AcDbEntity
  8
0
  6
Continuous
 62
     7
370
    15
100
AcDbLine
 10
223.1923021795
 20
366.7837871786
 30
0.0
 11
272.2068313928
 21
366.7837871786
 31
0.0
  0
LINE
  5
B7
330
1F
100
AcDbEntity
  8
0
  6
Continuous
 62
     7
370
    15
100
AcDbLine
 10
119.1609237762
 20
366.7837871786
 30
0.0
 11
168.1754548522
 21
366.7837871786
 31
0.0
  0
LINE
  5
B8
330
1F
100
AcDbEntity
  8
0
  6
Continuous
 62
     7
370
    15
100
AcDbLine
 10
272.2068313928
 20
321.147287878
 30
0.0
 11
119.1609237762
 21
321.147287878
 31
0.0
  0
ARC
  5
B9
330
1F
100
AcDbEntity
  8
0
  6
Continuous
 62
     7
370
    15
100
AcDbCircle
 10
119.1609235279
 20
352.7417880391
 30
0.0
 40
14.04200000000003
100
AcDbArc
 50
90.0
 51
177.303638876
  0
ARC
  5
BA
330
1F
100
AcDbEntity
  8
0
  6
Continuous
 62
     7
370
    15
100
AcDbCircle
 10
119.1609235279
 20
335.1892880391
 30
0.0
 40
14.04199999999998
100
AcDbArc
 50
182.696361124
 51
270.0
  0
ARC
  5
BB
330
1F
100
AcDbEntity
  8
0
  6
Continuous
 62
     7
370
    15
100
AcDbCircle
 10
272.2068336316
 20
352.7417880391
 30
0.0
 40
14.04200000000003
100
AcDbArc
 50
2.696361124
 51
90.0
  0
ARC
  5
BC
330
1F
100
AcDbEntity
  8
0
  6
Continuous
 62
     7
370
    15
100
AcDbCircle
 10
85.8553785798
 20
343.9655380391
 30
0.0
 40
200.6
100
AcDbArc
 50
357.303638876
 51
2.696361124
  0
ARC
  5
BD
330
1F
100
AcDbEntity
  8
0
  6
Continuous
 62
     7
370
    15
100
AcDbCircle
 10
272.2068336316
 20
335.1892880391
 30
0.0
 40
14.04199999999998
100
AcDbArc
 50
270.0
 51
357.303638876
  0
ARC
  5
BE
330
1F
100
AcDbEntity
  8
0
  6
Continuous
 62
     7
370
    15
100
AcDbCircle
 10
305.5123785798
 20
343.9655380391
 30
0.0
 40
200.6
100
AcDbArc
 50
177.303638876
 51
182.696361124
  0
LINE
  5
BF
330
1F
100
AcDbEntity
  8
0
  6
Continuous
 62
     7
370
    15
100
AcDbLine
 10
218.7528783875
 20
371.8316114123
 30
0.0
 11
198.1913784007
 21
371.8316114123
 31
0.0
  0
LINE
  5
C0
330
1F
100
AcDbEntity
  8
0
  6
Continuous
 62
     7
370
    15
100
AcDbLine
 10
193.1763781654
 20
371.8316114123
 30
0.0
 11
172.6148795756
 21
371.8316114123
 31
0.0
  0
LWPOLYLINE
  5
C1
330
1F
100
AcDbEntity
  8
0
  6
Continuous
 62
     7
370
    15
100
AcDbPolyline
 90
        3
 70
   128
 43
0.0
 10
184.8751508119
 20
408.7765483733
 10
184.8118842067
 20
408.7836487766
 10
184.796020058
 20
408.7809218641
  0
SPLINE
  5
C2
330
1F
100
AcDbEntity
  8
0
  6
Continuous
 62
     7
370
    15
100
AcDbSpline
210
0.0
220
0.0
230
1.0
 70
     8
 71
     3
 72
    11
 73
     7
 74
     0
 42
0.00000001
 43
0.00000001
 40
0.0
 40
0.0
 40
0.0
 40
0.0
 40
0.2711245198533876
 40
0.5148660126791619
 40
0.7586403815669102
 40
1.0
 40
1.0
 40
1.0
 40
1.0
 10
206.4926071511664
 20
408.7765483732704
 30
0.0
 10
207.7377859597967
 20
408.5550490893402
 30
0.0
 10
210.1023830409414
 20
408.1344215002528
 30
0.0
 10
212.9598501733408
 20
407.3346396928487
 30
0.0
 10
215.2569347481716
 20
406.4995287774322
 30
0.0
 10
216.2762398375699
 20
405.9132254620098
 30
0.0
 10
216.7833555908956
 20
405.6215329642776
 30
0.0
  0
SPLINE
  5
C3
330
1F
100
AcDbEntity
  8
0
  6
Continuous
 62
     7
370
    15
100
AcDbSpline
210
0.0
220
0.0
230
1.0
 70
     8
 71
     3
 72
    12
 73
     8
 74
     0
 42
0.00000001
 43
0.00000001
 40
0.0
 40
0.0
 40
0.0
 40
0.0
 40
0.0132403358661782
 40
0.2597011427127042
 40
0.5061433081474866
 40
0.7530932392254929
 40
1.0
 40
1.0
 40
1.0
 40
1.0
 10
174.8301644297399
 20
405.7667447801117
 30
0.0
 10
174.8503977252383
 20
405.7821024004838
 30
0.0
 10
175.2472615219635
 20
406.0833327922444
 30
0.0
 10
176.5849586264122
 20
406.6659745128046
 30
0.0
 10
178.8224297062824
 20
407.4693645196132
 30
0.0
 10
181.6052044260162
 20
408.2008844619138
 30
0.0
 10
183.7852322053623
 20
408.5846715856889
 30
0.0
 10
184.8751508118667
 20
408.7765483732704
 30
0.0
  0
SPLINE
  5
C4
330
1F
100
AcDbEntity
  8
0
  6
Continuous
 62
     7
370
    15
100
AcDbSpline
210
0.0
220
0.0
230
1.0
 70
     8
 71
     3
 72
    11
 73
     7
 74
     0
 42
0.00000001
 43
0.00000001
 40
0.0
 40
0.0
 40
0.0
 40
0.0
 40
0.2286647305599147
 40
0.4621684889111525
 40
0.9254010686626699
 40
1.0
 40
1.0
 40
1.0
 40
1.0
 10
286.7304642172613
 20
346.651747504938
 30
0.0
 10
286.7262212862984
 20
346.6590951230606
 30
0.0
 10
286.717645635008
 20
346.6739458503963
 30
0.0
 10
286.6221283907968
 20
346.8393984614928
 30
0.0
 10
286.4982327517808
 20
347.0539772752436
 30
0.0
 10
286.3682852226195
 20
347.2790628258398
 30
0.0
 10
286.3502610894002
 20
347.3102829034809
 30
0.0
  0
ARC
  5
C5
330
1F
100
AcDbEntity
  8
0
  6
Continuous
 62
     7
370
    15
100
AcDbCircle
 10
270.9088785798
 20
343.9655380391
 30
0.0
 40
16.04799999999998
100
AcDbArc
 50
350.3641348063
 51
9.6358651937
  0
SPLINE
  5
C6
330
1F
100
AcDbEntity
  8
0
  6
Continuous
 62
     7
370
    15
100
AcDbSpline
210
0.0
220
0.0
230
1.0
 70
     8
 71
     3
 72
    10
 73
     6
 74
     0
 42
0.00000001
 43
0.00000001
 40
0.0
 40
0.0
 40
0.0
 40
0.0
 40
0.0649184538998271
 40
0.5342253637560965
 40
1.0
 40
1.0
 40
1.0
 40
1.0
 10
286.3777835341253
 20
340.668467486966
 30
0.0
 10
286.392507587287
 20
340.6939720501873
 30
0.0
 10
286.5136744078706
 20
340.9038535822606
 30
0.0
 10
286.674667170114
 20
341.1826882551234
 30
0.0
 10
286.7119120991595
 20
341.2471966109335
 30
0.0
 10
286.7304642172613
 20
341.2793289485756
 30
0.0
  0
SPLINE
  5
C7
330
1F
100
AcDbEntity
  8
0
  6
Continuous
 62
     7
370
    15
100
AcDbSpline
210
0.0
220
0.0
230
1.0
 70
     8
 71
     3
 72
    11
 73
     7
 74
     0
 42
0.00000001
 43
0.00000001
 40
0.0
 40
0.0
 40
0.0
 40
0.0
 40
0.2330422845676859
 40
0.4659501218099691
 40
0.9323758891665532
 40
1.0
 40
1.0
 40
1.0
 40
1.0
 10
104.6372909518041
 20
341.2793289485756
 30
0.0
 10
104.6417656400484
 20
341.2715825350613
 30
0.0
 10
104.6507124349889
 20
341.2560941771126
 30
0.0
 10
104.7477798951182
 20
341.0879601016863
 30
0.0
 10
104.8718556597967
 20
340.8730365212814
 30
0.0
 10
105.0011319137003
 20
340.649143963971
 30
0.0
 10
105.0175015302458
 20
340.6207935500327
 30
0.0
  0
ARC
  5
C8
330
1F
100
AcDbEntity
  8
0
  6
Continuous
 62
     7
370
    15
100
AcDbCircle
 10
120.4588785798
 20
343.9655380391
 30
0.0
 40
16.04800000000009
100
AcDbArc
 50
170.3641348063
 51
189.6358651937
  0
SPLINE
  5
C9
330
1F
100
AcDbEntity
  8
0
  6
Continuous
 62
     7
370
    15
100
AcDbSpline
210
0.0
220
0.0
230
1.0
 70
     8
 71
     3
 72
    10
 73
     6
 74
     0
 42
0.00000001
 43
0.00000001
 40
0.0
 40
0.0
 40
0.0
 40
0.0
 40
0.0589967731158351
 40
0.531380097687865
 40
1.0
 40
1.0
 40
1.0
 40
1.0
 10
104.9899716349401
 20
347.2626085008863
 30
0.0
 10
104.9765511893345
 20
347.2393604265161
 30
0.0
 10
104.8556741087711
 20
347.0299665329615
 30
0.0
 10
104.6939252051125
 20
346.7498398649807
 30
0.0
 10
104.6561186353907
 20
346.6843576623827
 30
0.0
 10
104.6372909518041
 20
346.651747504938
 30
0.0
  0
ARC
  5
CA
330
1F
100
AcDbEntity
  8
0
  6
Continuous
 62
     7
370
    15
100
AcDbCircle
 10
270.9088785798
 20
343.9655380391
 30
0.0
 40
35.16057968938928
100
AcDbArc
 50
220.4641789959
 51
139.535821004
  0
ARC
  5
CB
330
1F
100
AcDbEntity
  8
0
  6
Continuous
 62
     7
370
    15
100
AcDbCircle
 10
120.4588785798
 20
343.9655380391
 30
0.0
 40
35.16057968938928
100
AcDbArc
 50
180.0
 51
319.5358210041
  0
ARC
  5
CC
330
1F
100
AcDbEntity
  8
0
  6
Continuous
 62
     7
370
    15
100
AcDbCircle
 10
120.4588785798
 20
343.9655380391
 30
0.0
 40
35.16057968938932
100
AcDbArc
 50
40.464178996
 51
180.0
  0
SPLINE
  5
CD
330
1F
100
AcDbEntity
  8
0
  6
Continuous
 62
     8
370
    15
100
AcDbSpline
210
0.0
220
0.0
230
1.0
 70
     8
 71
     3
 72
    23
 73
    19
 74
     0
 42
0.00000001
 43
0.00000001
 40
0.0
 40
0.0
 40
0.0
 40
0.0
 40
0.0520359058542595
 40
0.1031708476871981
 40
0.1532788393898693
 40
0.2025270883769978
 40
0.2511252387565014
 40
0.2991967617349748
 40
0.3467056651377607
 40
0.3935763204982211
 40
0.4398413938702193
 40
0.5242561856031593
 40
0.6069912785540115
 40
0.6881375902482584
 40
0.7678654499797721
 40
0.846306952770157
 40
0.9236232200127231
 40
1.0
 40
1.0
 40
1.0
 40
1.0
 10
214.0586840279642
 20
353.7446467278707
 30
0.0
 10
214.0594467949243
 20
353.5459454173113
 30
0.0
 10
214.060959122087
 20
353.1519831654694
 30
0.0
 10
214.0474555594328
 20
352.56677390098
 30
0.0
 10
214.0198137839691
 20
351.9927383785348
 30
0.0
 10
213.9778133335881
 20
351.4292810936223
 30
0.0
 10
213.922233430343
 20
350.8748218595813
 30
0.0
 10
213.8534840659494
 20
350.3285345309629
 30
0.0
 10
213.7719869422774
 20
349.7906759008803
 30
0.0
 10
213.6782705268238
 20
349.2618145179565
 30
0.0
 10
213.5436318109983
 20
348.5972946285019
 30
0.0
 10
213.3551405492665
 20
347.8042043047568
 30
0.0
 10
213.0968886320774
 20
346.891652347161
 30
0.0
 10
212.805067224169
 20
346.0081125659162
 30
0.0
 10
212.4825147448328
 20
345.1528202674343
 30
0.0
 10
212.1302854871362
 20
344.3252774644215
 30
0.0
 10
211.7521790403475
 20
343.5231671170461
 30
0.0
 10
211.4751465090621
 20
343.005712928007
 30
0.0
 10
211.337476958795
 20
342.7485673676705
 30
0.0
  0
SPLINE
  5
CE
330
1F
100
AcDbEntity
  8
0
  6
Continuous
 62
     8
370
     0
100
AcDbSpline
210
0.0
220
0.0
230
1.0
 70
     8
 71
     3
 72
    28
 73
    24
 74
     0
 42
0.00000001
 43
0.00000001
 40
0.0
 40
0.0
 40
0.0
 40
0.0
 40
0.0624999999999994
 40
0.0624999999999994
 40
0.1249999999999987
 40
0.1249999999999987
 40
0.1874999999999981
 40
0.1874999999999981
 40
0.2499999999999974
 40
0.2499999999999974
 40
0.3749999999999975
 40
0.3749999999999975
 40
0.4999999999999976
 40
0.4999999999999976
 40
0.6249999999999976
 40
0.6249999999999976
 40
0.7499999999999977
 40
0.7499999999999977
 40
0.8749999999999977
 40
0.8749999999999977
 40
0.9374999999999989
 40
0.9374999999999989
 40
1.0
 40
1.0
 40
1.0
 40
1.0
 10
201.1459566452622
 20
342.1995731210058
 30
0.0
 10
201.5147277470135
 20
342.171262488218
 30
0.0
 10
201.8754399085564
 20
342.1451728610226
 30
0.0
 10
202.5841904140917
 20
342.1074543577587
 30
0.0
 10
202.9329371281964
 20
342.0949083849966
 30
0.0
 10
203.6178439673116
 20
342.0773028166879
 30
0.0
 10
203.9540133504775
 20
342.0722616564716
 30
0.0
 10
204.6131518557867
 20
342.0676759305979
 30
0.0
 10
204.9368021906498
 20
342.0679559054985
 30
0.0
 10
205.8773111925852
 20
342.0765431204069
 30
0.0
 10
206.4663207741791
 20
342.0924852523656
 30
0.0
 10
207.56671417661
 20
342.1460432852273
 30
0.0
 10
208.0810676367082
 20
342.1845348326827
 30
0.0
 10
209.0008732429627
 20
342.2833077316032
 30
0.0
 10
209.4084604850223
 20
342.343929475025
 30
0.0
 10
210.1122839798246
 20
342.4717198459289
 30
0.0
 10
210.4094278363531
 20
342.5383021240218
 30
0.0
 10
210.8751038520862
 20
342.6469302420084
 30
0.0
 10
211.045551777832
 20
342.6890285346915
 30
0.0
 10
211.2197935648256
 20
342.7278856151509
 30
0.0
 10
211.2641311237601
 20
342.7364608686965
 30
0.0
 10
211.3227201091768
 20
342.7463108751908
 30
0.0
 10
211.3369435990423
 20
342.7480936018576
 30
0.0
 10
211.3371288365701
 20
342.7479345538749
 30
0.0
  0
SPLINE
  5
CF
330
1F
100
AcDbEntity
  8
0
  6
Continuous
 62
     8
370
     0
100
AcDbSpline
210
0.0
220
0.0
230
1.0
 70
     8
 71
     3
 72
    30
 73
    26
 74
     0
 42
0.00000001
 43
0.00000001
 40
0.0
 40
0.0
 40
0.0
 40
0.0
 40
0.1249999999999991
 40
0.1249999999999991
 40
0.2499999999999982
 40
0.2499999999999982
 40
0.3124999999999977
 40
0.3124999999999977
 40
0.3749999999999972
 40
0.3749999999999972
 40
0.4999999999999983
 40
0.4999999999999983
 40
0.562499999999998
 40
0.562499999999998
 40
0.6249999999999977
 40
0.6249999999999977
 40
0.7499999999999972
 40
0.7499999999999972
 40
0.8124999999999979
 40
0.8124999999999979
 40
0.8749999999999986
 40
0.8749999999999986
 40
0.9374999999999992
 40
0.9374999999999992
 40
1.0
 40
1.0
 40
1.0
 40
1.0
 10
180.0305982931333
 20
342.7479926020916
 30
0.0
 10
180.0309029686961
 20
342.7484210535175
 30
0.0
 10
180.0897775467415
 20
342.7421780889422
 30
0.0
 10
180.3232005509978
 20
342.6952144286988
 30
0.0
 10
180.4933448686047
 20
342.658140243289
 30
0.0
 10
180.8412482655269
 20
342.5810286326115
 30
0.0
 10
180.9723814661043
 20
342.5521166335649
 30
0.0
 10
181.2664806274813
 20
342.4901894917581
 30
0.0
 10
181.4294990718495
 20
342.4572376720704
 30
0.0
 10
181.9578698522495
 20
342.3598964636237
 30
0.0
 10
182.3651678405441
 20
342.2970784300937
 30
0.0
 10
183.0528014333397
 20
342.2196867843768
 30
0.0
 10
183.294781986981
 20
342.1965213412471
 30
0.0
 10
183.8038864159916
 20
342.1558481508391
 30
0.0
 10
184.0716105212667
 20
342.1383179897475
 30
0.0
 10
184.8997380326201
 20
342.0945482009095
 30
0.0
 10
185.4885457930228
 20
342.0763851173758
 30
0.0
 10
186.423728587178
 20
342.0652485316593
 30
0.0
 10
186.7441317971071
 20
342.0643027680495
 30
0.0
 10
187.402319498226
 20
342.0689945787633
 30
0.0
 10
187.740927601568
 20
342.0747272000207
 30
0.0
 10
188.429551413301
 20
342.0936507254962
 30
0.0
 10
188.7801296775741
 20
342.1068415246881
 30
0.0
 10
189.4918163318567
 20
342.1449614904727
 30
0.0
 10
189.8532356840658
 20
342.1709184370524
 30
0.0
 10
190.2220545205417
 20
342.1990465209653
 30
0.0
  0
LINE
  5
D0
330
1F
100
AcDbEntity
  8
0
  6
Continuous
 62
     8
370
     0
100
AcDbLine
 10
178.9344806643
 20
345.0523956295
 30
0.0
 11
180.0305094989
 21
342.7487301256
 31
0.0
  0
LINE
  5
D1
330
1F
100
AcDbEntity
  8
0
  6
Continuous
 62
     8
370
    15
100
AcDbLine
 10
213.9872001903
 20
364.8780888494
 30
0.0
 11
213.9872001903
 21
353.7447887089
 31
0.0
  0
LINE
  5
D2
330
1F
100
AcDbEntity
  8
0
  6
Continuous
 62
     8
370
    15
100
AcDbLine
 10
177.3805577727
 20
353.7447924341
 30
0.0
 11
177.3805577727
 21
364.8780888494
 31
0.0
  0
SPLINE
  5
D3
330
1F
100
AcDbEntity
  8
0
  6
Continuous
 62
     8
370
     0
100
AcDbSpline
210
0.0
220
0.0
230
1.0
 70
     8
 71
     3
 72
    20
 73
    16
 74
     0
 42
0.00000001
 43
0.00000001
 40
0.0
 40
0.0
 40
0.0
 40
0.0
 40
0.1249999999999998
 40
0.1249999999999998
 40
0.2499999999999995
 40
0.2499999999999995
 40
0.4999999999999997
 40
0.4999999999999997
 40
0.6249999999999998
 40
0.6249999999999998
 40
0.7499999999999998
 40
0.7499999999999998
 40
0.8749999999999999
 40
0.8749999999999999
 40
1.0
 40
1.0
 40
1.0
 40
1.0
 10
190.2219745759516
 20
342.19930888004
 30
0.0
 10
190.6562486116815
 20
342.2332968959092
 30
0.0
 10
191.1008919928349
 20
342.257270850999
 30
0.0
 10
192.0008530717901
 20
342.295530002277
 30
0.0
 10
192.4597247968291
 20
342.3087840206234
 30
0.0
 10
193.8363827198168
 20
342.3393682437019
 30
0.0
 10
194.7567926385641
 20
342.3473682352227
 30
0.0
 10
196.1411699650043
 20
342.3474078471914
 30
0.0
 10
196.6032665280042
 20
342.3452635729498
 30
0.0
 10
197.5287379722246
 20
342.3362151645499
 30
0.0
 10
197.9942150485258
 20
342.329112193901
 30
0.0
 10
198.9155239130197
 20
342.308590705933
 30
0.0
 10
199.3702813717762
 20
342.2954044996718
 30
0.0
 10
200.2674215372842
 20
342.2572290465793
 30
0.0
 10
200.7113877541385
 20
342.2319538853831
 30
0.0
 10
201.1457513731917
 20
342.1993112250529
 30
0.0
  0
ARC
  5
D4
330
1F
100
AcDbEntity
  8
0
  6
Continuous
 62
     8
370
    15
100
AcDbCircle
 10
179.2862198745
 20
364.8781250768
 30
0.0
 40
1.905662102086116
100
AcDbArc
 50
90.0010388745
 51
180.0010892168
  0
ARC
  5
D5
330
1F
100
AcDbEntity
  8
0
  6
Continuous
 62
     8
370
    15
100
AcDbCircle
 10
212.0815373135
 20
364.8781243018
 30
0.0
 40
1.905662877122777
100
AcDbArc
 50
359.9989340857
 51
89.9989518238
  0
SPLINE
  5
D6
330
1F
100
AcDbEntity
  8
0
  6
Continuous
 62
     8
370
     0
100
AcDbSpline
210
0.0
220
0.0
230
1.0
 70
     8
 71
     3
 72
    10
 73
     6
 74
     0
 42
0.00000001
 43
0.00000001
 40
0.0
 40
0.0
 40
0.0
 40
0.0
 40
0.5
 40
0.5
 40
1.0
 40
1.0
 40
1.0
 40
1.0
 10
190.6079689615081
 20
341.7087880390561
 30
0.0
 10
190.5378376705895
 20
341.7087880390561
 30
0.0
 10
190.4677252740193
 20
341.7518721900053
 30
0.0
 10
190.3363117367953
 20
341.9188174877776
 30
0.0
 10
190.2750460007822
 20
342.0426336572078
 30
0.0
 10
190.2220545205415
 20
342.1990465209653
 30
0.0
  0
SPLINE
  5
D7
330
1F
100
AcDbEntity
  8
0
  6
Continuous
 62
     8
370
     0
100
AcDbSpline
210
0.0
220
0.0
230
1.0
 70
     8
 71
     3
 72
    10
 73
     6
 74
     0
 42
0.00000001
 43
0.00000001
 40
0.0
 40
0.0
 40
0.0
 40
0.0
 40
0.5
 40
0.5
 40
1.0
 40
1.0
 40
1.0
 40
1.0
 10
200.7619742612001
 20
341.7087880390561
 30
0.0
 10
200.8317262465465
 20
341.7087880390561
 30
0.0
 10
200.9014594187782
 20
341.7518965266788
 30
0.0
 10
201.0321573364141
 20
341.9189331662849
 30
0.0
 10
201.0930868307082
 20
342.0428162660817
 30
0.0
 10
201.1457825835125
 20
342.199308879568
 30
0.0
  0
SPLINE
  5
D8
330
1F
100
AcDbEntity
  8
0
  6
Continuous
 62
     8
370
     0
100
AcDbSpline
210
0.0
220
0.0
230
1.0
 70
     8
 71
     3
 72
    10
 73
     6
 74
     0
 42
0.00000001
 43
0.00000001
 40
0.0
 40
0.0
 40
0.0
 40
0.0
 40
0.5
 40
0.5
 40
1.0
 40
1.0
 40
1.0
 40
1.0
 10
209.5795086292219
 20
341.7087880390561
 30
0.0
 10
209.9365371910021
 20
341.7087880390561
 30
0.0
 10
210.293088636401
 20
341.8063046649622
 30
0.0
 10
210.9077547173048
 20
342.1697097368937
 30
0.0
 10
211.1650479416184
 20
342.4351125452658
 30
0.0
 10
211.337128856584
 20
342.7479345366366
 30
0.0
  0
SPLINE
  5
D9
330
1F
100
AcDbEntity
  8
0
  6
Continuous
 62
     8
370
     0
100
AcDbSpline
210
0.0
220
0.0
230
1.0
 70
     8
 71
     3
 72
    10
 73
     6
 74
     0
 42
0.00000001
 43
0.00000001
 40
0.0
 40
0.0
 40
0.0
 40
0.0
 40
0.5
 40
0.5
 40
1.0
 40
1.0
 40
1.0
 40
1.0
 10
180.0305982764669
 20
342.7479925785686
 30
0.0
 10
180.2026741829412
 20
342.4351552310449
 30
0.0
 10
180.4599693300082
 20
342.1697372873001
 30
0.0
 10
181.0746484208416
 20
341.8063108283545
 30
0.0
 10
181.4312108351111
 20
341.7087880390561
 30
0.0
 10
181.788250439138
 20
341.7087880390561
 30
0.0
  0
LINE
  5
DA
330
1F
100
AcDbEntity
  8
0
  6
Continuous
 62
     8
370
    15
100
AcDbLine
 10
214.6671271371
 20
364.8780888494
 30
0.0
 11
214.6671271371
 21
357.7567885246
 31
0.0
  0
LINE
  5
DB
330
1F
100
AcDbEntity
  8
0
  6
Continuous
 62
     8
370
    15
100
AcDbLine
 10
176.700630826
 20
364.8780888494
 30
0.0
 11
176.700630826
 21
357.7567885246
 31
0.0
  0
SPLINE
  5
DC
330
1F
100
AcDbEntity
  8
0
  6
Continuous
 62
     8
370
    15
100
AcDbSpline
210
0.0
220
0.0
230
1.0
 70
     8
 71
     3
 72
    14
 73
    10
 74
     0
 42
0.00000001
 43
0.00000001
 40
0.0
 40
0.0
 40
0.0
 40
0.0
 40
0.2500000000000012
 40
0.2500000000000012
 40
0.5000000000000024
 40
0.5000000000000024
 40
0.7500000000000012
 40
0.7500000000000012
 40
1.0
 40
1.0
 40
1.0
 40
1.0
 10
212.7614994938143
 20
366.7837880390561
 30
0.0
 10
213.0109455419763
 20
366.7837880390561
 30
0.0
 10
213.2602934437702
 20
366.7341877689828
 30
0.0
 10
213.7212096404957
 20
366.5432627593428
 30
0.0
 10
213.9325965845858
 20
366.4020131406143
 30
0.0
 10
214.2853665689769
 20
366.0492297233123
 30
0.0
 10
214.426610809353
 20
365.8378347299489
 30
0.0
 10
214.6175285491541
 20
365.3769009822796
 30
0.0
 10
214.6671269306011
 20
365.1275435857205
 30
0.0
 10
214.6671269306011
 20
364.8780880390561
 30
0.0
  0
ARC
  5
DD
330
1F
100
AcDbEntity
  8
0
  6
Continuous
 62
     8
370
    15
100
AcDbCircle
 10
178.6062929277
 20
364.8781250768
 30
0.0
 40
1.905662102086116
100
AcDbArc
 50
90.0010388745
 51
180.0010892168
  0
SPLINE
  5
DE
330
1F
100
AcDbEntity
  8
0
  6
Continuous
 62
     8
370
     0
100
AcDbSpline
210
0.0
220
0.0
230
1.0
 70
     8
 71
     3
 72
    16
 73
    12
 74
     0
 42
0.00000001
 43
0.00000001
 40
0.0
 40
0.0
 40
0.0
 40
0.0
 40
0.125
 40
0.125
 40
0.25
 40
0.25
 40
0.5
 40
0.5
 40
0.75
 40
0.75
 40
1.0
 40
1.0
 40
1.0
 40
1.0
 10
211.3375800548005
 20
342.749334428184
 30
0.0
 10
211.3385651514253
 20
342.7443258829716
 30
0.0
 10
211.3368875227969
 20
342.7444416937165
 30
0.0
 10
211.3375120834802
 20
342.7395457871347
 30
0.0
 10
211.3380708962964
 20
342.7353536963145
 30
0.0
 10
211.3406751421413
 20
342.7207180583748
 30
0.0
 10
211.3426248075069
 20
342.7096477823997
 30
0.0
 10
211.3459036005007
 20
342.6882087569495
 30
0.0
 10
211.3478566285922
 20
342.6781585402302
 30
0.0
 10
211.3507706120281
 20
342.6573769285524
 30
0.0
 10
211.3513117825883
 20
342.6460343970197
 30
0.0
 10
211.3529471670443
 20
342.6365979118825
 30
0.0
  0
SPLINE
  5
DF
330
1F
100
AcDbEntity
  8
0
  6
Continuous
 62
     8
370
     0
100
AcDbSpline
210
0.0
220
0.0
230
1.0
 70
     8
 71
     3
 72
    16
 73
    12
 74
     0
 42
0.00000001
 43
0.00000001
 40
0.0
 40
0.0
 40
0.0
 40
0.0
 40
0.2500000000000002
 40
0.2500000000000002
 40
0.5000000000000003
 40
0.5000000000000003
 40
0.7500000000000004
 40
0.7500000000000004
 40
0.8750000000000002
 40
0.8750000000000002
 40
1.0
 40
1.0
 40
1.0
 40
1.0
 10
180.0148099967783
 20
342.6365979365664
 30
0.0
 10
180.0164453798733
 20
342.6460344191889
 30
0.0
 10
180.0169865497987
 20
342.657376948823
 30
0.0
 10
180.0199005332536
 20
342.6781585526442
 30
0.0
 10
180.021853560579
 20
342.6882087663166
 30
0.0
 10
180.0251323523422
 20
342.7096477850583
 30
0.0
 10
180.0270820168606
 20
342.7207180565328
 30
0.0
 10
180.0296862623864
 20
342.7353536908657
 30
0.0
 10
180.0302450755552
 20
342.739545783453
 30
0.0
 10
180.030869636695
 20
342.7444416929901
 30
0.0
 10
180.0291920080452
 20
342.7443258799232
 30
0.0
 10
180.0301771045677
 20
342.7493344272861
 30
0.0
  0
LINE
  5
E0
330
1F
100
AcDbEntity
  8
0
  6
Continuous
 62
     8
370
    15
100
AcDbLine
 10
198.6928783776
 20
414.3780811306
 30
0.0
 11
198.434418668
 21
414.3780811306
 31
0.0
  0
SPLINE
  5
E1
330
1F
100
AcDbEntity
  8
0
  6
Continuous
 62
     8
370
    15
100
AcDbSpline
210
0.0
220
0.0
230
1.0
 70
     8
 71
     3
 72
     8
 73
     4
 74
     0
 42
0.00000001
 43
0.00000001
 40
0.0
 40
0.0
 40
0.0
 40
0.0
 40
1.0
 40
1.0
 40
1.0
 40
1.0
 10
196.6934344190846
 20
414.37808496054
 30
0.0
 10
197.273864234106
 20
414.3784029072278
 30
0.0
 10
197.854179785853
 20
414.3783634370009
 30
0.0
 10
198.4344188840977
 20
414.3780848192876
 30
0.0
  0
SPLINE
  5
E2
330
1F
100
AcDbEntity
  8
0
  6
Continuous
 62
     8
370
    15
100
AcDbSpline
210
0.0
220
0.0
230
1.0
 70
     8
 71
     3
 72
     8
 73
     4
 74
     0
 42
0.00000001
 43
0.00000001
 40
0.0
 40
0.0
 40
0.0
 40
0.0
 40
1.0
 40
1.0
 40
1.0
 40
1.0
 10
192.9333382754481
 20
414.3780848192876
 30
0.0
 10
193.5135922950547
 20
414.3783634446627
 30
0.0
 10
194.0939227779664
 20
414.3784028918883
 30
0.0
 10
194.6743675192629
 20
414.3780849374937
 30
0.0
  0
LINE
  5
E3
330
1F
100
AcDbEntity
  8
0
  6
Continuous
 62
     8
370
    15
100
AcDbLine
 10
192.9333383637
 20
414.3780811306
 30
0.0
 11
192.6748786541
 21
414.3780811306
 31
0.0
  0
LINE
  5
E4
330
1F
100
AcDbEntity
  8
0
  6
Continuous
 62
     8
370
     0
100
AcDbLine
 10
192.6748786541
 20
416.7573197361
 30
0.0
 11
198.6928783776
 21
416.7573197361
 31
0.0
  0
LWPOLYLINE
  5
E5
330
1F
100
AcDbEntity
  8
0
  6
Continuous
 62
     8
370
     0
100
AcDbPolyline
 90
        9
 70
   128
 43
0.0
 10
185.6538780453
 20
415.2975721832
 10
185.7887857081
 20
415.5823557253
 10
186.18832123
 20
415.8561943646
 10
186.8371308269
 20
416.1085678812
 10
187.7102811309
 20
416.3297681685
 10
188.7742203148
 20
416.5113090153
 10
189.9880586611
 20
416.646201777
 10
191.305149016
 20
416.7292683001
 10
192.6748786541
 20
416.7573197361
  0
SPLINE
  5
E6
330
1F
100
AcDbEntity
  8
0
  6
Continuous
 62
     8
370
    15
100
AcDbSpline
210
0.0
220
0.0
230
1.0
 70
     8
 71
     3
 72
    13
 73
     9
 74
     0
 42
0.00000001
 43
0.00000001
 40
0.0
 40
0.0
 40
0.0
 40
0.0
 40
0.1665435692417691
 40
0.3327640174232289
 40
0.4989402884871904
 40
0.665352364188155
 40
0.832280042506967
 40
1.0
 40
1.0
 40
1.0
 40
1.0
 10
191.4535446774671
 20
414.3468922131688
 30
0.0
 10
191.5201710679948
 20
414.3501732336922
 30
0.0
 10
191.6532945832367
 20
414.3567289090365
 30
0.0
 10
191.8551592579842
 20
414.3643854201962
 30
0.0
 10
192.0581996401837
 20
414.370452160477
 30
0.0
 10
192.2625972435302
 20
414.3747410773189
 30
0.0
 10
192.4682996592521
 20
414.3774463501562
 30
0.0
 10
192.6059103603596
 20
414.3778064438649
 30
0.0
 10
192.674878607765
 20
414.3779869169807
 30
0.0
  0
SPLINE
  5
E7
330
1F
100
AcDbEntity
  8
0
  6
Continuous
 62
     8
370
    15
100
AcDbSpline
210
0.0
220
0.0
230
1.0
 70
     8
 71
     3
 72
    12
 73
     8
 74
     0
 42
0.00000001
 43
0.00000001
 40
0.0
 40
0.0
 40
0.0
 40
0.0
 40
0.2005415221883958
 40
0.4003899847223894
 40
0.5999674863293206
 40
0.7996973215040666
 40
1.0
 40
1.0
 40
1.0
 40
1.0
 10
190.3887707962452
 20
414.2635355491315
 30
0.0
 10
190.4570289726061
 20
414.2706029549311
 30
0.0
 10
190.5933094291024
 20
414.2847133419931
 30
0.0
 10
190.8031103649569
 20
414.3033791309912
 30
0.0
 10
191.0162548825926
 20
414.3200738243771
 30
0.0
 10
191.2329413281774
 20
414.3348067103697
 30
0.0
 10
191.3799400607055
 20
414.3428598682168
 30
0.0
 10
191.4535446774671
 20
414.3468922131688
 30
0.0
  0
LWPOLYLINE
  5
E8
330
1F
100
AcDbEntity
  8
0
  6
Continuous
 62
     8
370
    15
100
AcDbPolyline
 90
        3
 70
   128
 43
0.0
 10
190.3889427381
 20
414.2634688492
 10
189.3001437606
 20
414.1066862817
 10
188.4467170062
 20
413.8961105223
  0
SPLINE
  5
E9
330
1F
100
AcDbEntity
  8
0
  6
Continuous
 62
     8
370
    15
100
AcDbSpline
210
0.0
220
0.0
230
1.0
 70
     8
 71
     3
 72
    14
 73
    10
 74
     0
 42
0.00000001
 43
0.00000001
 40
0.0
 40
0.0
 40
0.0
 40
0.0
 40
0.1433678440746992
 40
0.2860741642629149
 40
0.4284107519270761
 40
0.5706736435652553
 40
0.7131611980020605
 40
0.8561715869276573
 40
1.0
 40
1.0
 40
1.0
 40
1.0
 10
187.8168509035267
 20
413.5950293898485
 30
0.0
 10
187.8366370056733
 20
413.6102875688532
 30
0.0
 10
187.8761179134886
 20
413.6407335230007
 30
0.0
 10
187.9476772843544
 20
413.6855495738341
 30
0.0
 10
188.0280908882777
 20
413.7295174401515
 30
0.0
 10
188.1181971336463
 20
413.7725780416099
 30
0.0
 10
188.2179630109405
 20
413.8147127984758
 30
0.0
 10
188.3266791785155
 20
413.8560335165001
 30
0.0
 10
188.4067426465472
 20
413.8827104451786
 30
0.0
 10
188.4468885454698
 20
413.8960869489528
 30
0.0
  0
ARC
  5
EA
330
1F
100
AcDbEntity
  8
0
  6
Continuous
 62
     8
370
    15
100
AcDbCircle
 10
187.6381988092
 20
415.3197357443
 30
0.0
 40
1.984444536282364
100
AcDbArc
 50
180.6399296586
 51
270.6259424923
  0
LWPOLYLINE
  5
EB
330
1F
100
AcDbEntity
  8
0
  6
Continuous
 62
     8
370
     0
100
AcDbPolyline
 90
        9
 70
   128
 43
0.0
 10
198.6928783776
 20
416.7573197361
 10
200.0626075501
 20
416.7292683001
 10
201.3796990691
 20
416.646201777
 10
202.5935371826
 20
416.5113090153
 10
203.6574753188
 20
416.3297681685
 10
204.5306267287
 20
416.1085678812
 10
205.1794367912
 20
415.8561943646
 10
205.5789720221
 20
415.5823557253
 10
205.7138786372
 20
415.2975721832
  0
ARC
  5
EC
330
1F
100
AcDbEntity
  8
0
  6
Continuous
 62
     8
370
    15
100
AcDbCircle
 10
203.7295576311
 20
415.3197359899
 30
0.0
 40
1.984444781145636
100
AcDbArc
 50
269.3740595343
 51
359.3600633284
  0
SPLINE
  5
ED
330
1F
100
AcDbEntity
  8
0
  6
Continuous
 62
     8
370
    15
100
AcDbSpline
210
0.0
220
0.0
230
1.0
 70
     8
 71
     3
 72
    14
 73
    10
 74
     0
 42
0.00000001
 43
0.00000001
 40
0.0
 40
0.0
 40
0.0
 40
0.0
 40
0.1438287849330816
 40
0.2868392021568677
 40
0.4293265722885227
 40
0.5715892000731428
 40
0.7139255771497347
 40
0.8566318707744511
 40
1.0
 40
1.0
 40
1.0
 40
1.0
 10
202.9208701487102
 20
413.8960864518693
 30
0.0
 10
202.9610248124469
 20
413.8827069298256
 30
0.0
 10
203.0411056649302
 20
413.8560240135373
 30
0.0
 10
203.1498427971898
 20
413.8146937663922
 30
0.0
 10
203.2496254963022
 20
413.7725491746616
 30
0.0
 10
203.3397441158082
 20
413.729478390378
 30
0.0
 10
203.4201656320147
 20
413.6855000215537
 30
0.0
 10
203.4917288376325
 20
413.6406731759727
 30
0.0
 10
203.5312085377384
 20
413.6102199072039
 30
0.0
 10
203.5509940561016
 20
413.5949580458719
 30
0.0
  0
SPLINE
  5
EE
330
1F
100
AcDbEntity
  8
0
  6
Continuous
 62
     8
370
    15
100
AcDbSpline
210
0.0
220
0.0
230
1.0
 70
     8
 71
     3
 72
    20
 73
    16
 74
     0
 42
0.00000001
 43
0.00000001
 40
0.0
 40
0.0
 40
0.0
 40
0.0
 40
0.0420808808549222
 40
0.0839565552834263
 40
0.1256996473237302
 40
0.1673835933669146
 40
0.2090818681820775
 40
0.2508676722728663
 40
0.3754154621228112
 40
0.500080441037292
 40
0.6249260297763918
 40
0.7500055555735561
 40
0.8334997463020427
 40
0.9166384331479001
 40
1.0
 40
1.0
 40
1.0
 40
1.0
 10
198.6928785517808
 20
414.3779869169807
 30
0.0
 10
198.763413486068
 20
414.3777985333905
 30
0.0
 10
198.9041393926932
 20
414.3774226848582
 30
0.0
 10
199.1144745632726
 20
414.3745969580514
 30
0.0
 10
199.3234170869438
 20
414.3701059545835
 30
0.0
 10
199.5309612671388
 20
414.3637900474069
 30
0.0
 10
199.737112457746
 20
414.3556820468234
 30
0.0
 10
200.076643368562
 20
414.3392280692933
 30
0.0
 10
200.5419950839144
 20
414.3079187379514
 30
0.0
 10
201.1104587117137
 20
414.2520205600833
 30
0.0
 10
201.6421440737618
 20
414.1819659195327
 30
0.0
 10
202.0741413868953
 20
414.1076783973035
 30
0.0
 10
202.4168934453594
 20
414.0348988906144
 30
0.0
 10
202.6867808533495
 20
413.9680859700939
 30
0.0
 10
202.8427707800208
 20
413.9201076994477
 30
0.0
 10
202.9208701487103
 20
413.8960864518693
 30
0.0
  0
LINE
  5
EF
330
1F
100
AcDbEntity
  8
0
  6
Continuous
 62
     8
370
     0
100
AcDbLine
 10
187.6598779531
 20
413.3354096289
 30
0.0
 11
187.6598779531
 21
413.2338209625
 31
0.0
  0
SPLINE
  5
F0
330
1F
100
AcDbEntity
  8
0
  6
Continuous
 62
     8
370
     0
100
AcDbSpline
210
0.0
220
0.0
230
1.0
 70
     8
 71
     3
 72
     8
 73
     4
 74
     0
 42
0.00000001
 43
0.00000001
 40
0.0
 40
0.0
 40
0.0
 40
0.0
 40
1.0
 40
1.0
 40
1.0
 40
1.0
 10
203.7078785797729
 20
413.335185429211
 30
0.0
 10
203.7078680971088
 20
413.3013656647408
 30
0.0
 10
203.7078738387833
 20
413.2675966501993
 30
0.0
 10
203.7078785797729
 20
413.233824505503
 30
0.0
  0
LINE
  5
F1
330
1F
100
AcDbEntity
  8
0
  6
Continuous
 62
     8
370
     0
100
AcDbLine
 10
187.6598779531
 20
412.7598522778
 30
0.0
 11
187.6598779531
 21
403.6469577427
 31
0.0
  0
SPLINE
  5
F2
330
1F
100
AcDbEntity
  8
0
  6
Continuous
 62
     8
370
    15
100
AcDbSpline
210
0.0
220
0.0
230
1.0
 70
     8
 71
     3
 72
    18
 73
    14
 74
     0
 42
0.00000001
 43
0.00000001
 40
0.0
 40
0.0
 40
0.0
 40
0.0
 40
0.1249999999999999
 40
0.1249999999999999
 40
0.2499999999999998
 40
0.2499999999999998
 40
0.3749999999999997
 40
0.3749999999999997
 40
0.4999999999999996
 40
0.4999999999999996
 40
0.7499999999999998
 40
0.7499999999999998
 40
1.0
 40
1.0
 40
1.0
 40
1.0
 10
185.6538785797724
 20
405.4125429233746
 30
0.0
 10
185.6538785797724
 20
405.2697911719666
 30
0.0
 10
185.6672275841852
 20
405.1261084088414
 30
0.0
 10
185.725662078795
 20
404.8418866439347
 30
0.0
 10
185.7694480165501
 20
404.7071062536406
 30
0.0
 10
185.8872063307647
 20
404.4523373354974
 30
0.0
 10
185.9609149031214
 20
404.3347249556481
 30
0.0
 10
186.124712099735
 20
404.1317377634084
 30
0.0
 10
186.2166351742998
 20
404.0432275912668
 30
0.0
 10
186.5131306962678
 20
403.8172369694678
 30
0.0
 10
186.7288305152496
 20
403.7231035329957
 30
0.0
 10
187.1877334015677
 20
403.6195352637233
 30
0.0
 10
187.4217931173756
 20
403.6127750726337
 30
0.0
 10
187.6598785797724
 20
403.6469608882824
 30
0.0
  0
SPLINE
  5
F3
330
1F
100
AcDbEntity
  8
0
  6
Continuous
 62
     8
370
    15
100
AcDbSpline
210
0.0
220
0.0
230
1.0
 70
     8
 71
     3
 72
    20
 73
    16
 74
     0
 42
0.00000001
 43
0.00000001
 40
0.0
 40
0.0
 40
0.0
 40
0.0
 40
0.2500000000000003
 40
0.2500000000000003
 40
0.3750000000000003
 40
0.3750000000000003
 40
0.5000000000000002
 40
0.5000000000000002
 40
0.6250000000000001
 40
0.6250000000000001
 40
0.7500000000000001
 40
0.7500000000000001
 40
0.875
 40
0.875
 40
1.0
 40
1.0
 40
1.0
 40
1.0
 10
203.7078785797724
 20
403.6469608882824
 30
0.0
 10
203.9458052128343
 20
403.6127978783536
 30
0.0
 10
204.1805970420492
 20
403.6196396768948
 30
0.0
 10
204.5241850914363
 20
403.6972203922386
 30
0.0
 10
204.6357586135892
 20
403.734243349174
 30
0.0
 10
204.850647608777
 20
403.8321685101268
 30
0.0
 10
204.9554456829269
 20
403.8939485092101
 30
0.0
 10
205.1513168698838
 20
404.0435110876298
 30
0.0
 10
205.2419751648414
 20
404.1305079999917
 30
0.0
 10
205.4069887783174
 20
404.3348109569058
 30
0.0
 10
205.479728981184
 20
404.4509964290803
 30
0.0
 10
205.5972276219777
 20
404.7043362750424
 30
0.0
 10
205.6427141837106
 20
404.8445213545331
 30
0.0
 10
205.7003338491718
 20
405.125535750363
 30
0.0
 10
205.7138785797724
 20
405.2698484540798
 30
0.0
 10
205.7138785797724
 20
405.4125429233746
 30
0.0
  0
LINE
  5
F4
330
1F
100
AcDbEntity
  8
0
  6
Continuous
 62
     8
370
     0
100
AcDbLine
 10
203.7078785547
 20
412.7598522778
 30
0.0
 11
203.7078785547
 21
403.6469577427
 31
0.0
  0
SPLINE
  5
F5
330
1F
100
AcDbEntity
  8
0
  6
Continuous
 62
     8
370
    15
100
AcDbSpline
210
0.0
220
0.0
230
1.0
 70
     8
 71
     3
 72
    46
 73
    42
 74
     0
 42
0.00000001
 43
0.00000001
 40
0.0
 40
0.0
 40
0.0
 40
0.0
 40
0.0312500000000002
 40
0.0312500000000002
 40
0.0468750000000008
 40
0.0468750000000008
 40
0.0625000000000014
 40
0.0625000000000014
 40
0.1250000000000013
 40
0.1250000000000013
 40
0.1875000000000011
 40
0.1875000000000011
 40
0.250000000000001
 40
0.250000000000001
 40
0.3125000000000008
 40
0.3125000000000008
 40
0.3750000000000007
 40
0.3750000000000007
 40
0.4375000000000006
 40
0.4375000000000006
 40
0.5000000000000004
 40
0.5000000000000004
 40
0.6250000000000001
 40
0.6250000000000001
 40
0.6875000000000001
 40
0.6875000000000001
 40
0.75
 40
0.75
 40
0.8125
 40
0.8125
 40
0.875
 40
0.875
 40
0.9062500000000001
 40
0.9062500000000001
 40
0.9375000000000001
 40
0.9375000000000001
 40
0.9687500000000001
 40
0.9687500000000001
 40
0.9843750000000001
 40
0.9843750000000001
 40
1.0
 40
1.0
 40
1.0
 40
1.0
 10
187.6598785797724
 20
403.6469608882824
 30
0.0
 10
187.8114374963948
 20
403.6730436057951
 30
0.0
 10
187.965172043694
 20
403.722272673805
 30
0.0
 10
188.1892147910199
 20
403.8278201764188
 30
0.0
 10
188.263007508897
 20
403.8687252646736
 30
0.0
 10
188.4085335689118
 20
403.9590204052799
 30
0.0
 10
188.4804333434507
 20
404.0085575241586
 30
0.0
 10
188.8376721677805
 20
404.2745333633959
 30
0.0
 10
189.1158134484144
 20
404.5459333098389
 30
0.0
 10
189.6684268023304
 20
405.091475881455
 30
0.0
 10
189.947263399358
 20
405.3668396349445
 30
0.0
 10
190.5329406063743
 20
405.8775119802726
 30
0.0
 10
190.8401161151991
 20
406.1138558962609
 30
0.0
 10
191.492462156537
 20
406.5337425357244
 30
0.0
 10
191.8375259059102
 20
406.717492637611
 30
0.0
 10
192.5679518019561
 20
407.0286769964519
 30
0.0
 10
192.9415634205085
 20
407.1511426266723
 30
0.0
 10
193.6992307311831
 20
407.3403528778646
 30
0.0
 10
194.0839803320168
 20
407.4071502523201
 30
0.0
 10
194.8634847497327
 20
407.4946184131932
 30
0.0
 10
195.2603079670138
 20
407.5151497086218
 30
0.0
 10
196.4425737407183
 20
407.5180264622809
 30
0.0
 10
197.223535289507
 20
407.4457117684082
 30
0.0
 10
198.3791621727906
 20
407.1654811057111
 30
0.0
 10
198.7536274276367
 20
407.0447866555477
 30
0.0
 10
199.4750107445053
 20
406.7441130349399
 30
0.0
 10
199.8225111339705
 20
406.5639064806699
 30
0.0
 10
200.4899580071279
 20
406.1414373362148
 30
0.0
 10
200.8064272670531
 20
405.9005441627581
 30
0.0
 10
201.4014511110363
 20
405.3850333179778
 30
0.0
 10
201.6822952633787
 20
405.108415396457
 30
0.0
 10
202.1000865708409
 20
404.6957912287647
 30
0.0
 10
202.2386862978982
 20
404.5596049958431
 30
0.0
 10
202.5192247188408
 20
404.2999946754489
 30
0.0
 10
202.6632703274283
 20
404.1758786315449
 30
0.0
 10
202.9554181406126
 20
403.9573752101016
 30
0.0
 10
203.1021857289324
 20
403.8640006331411
 30
0.0
 10
203.325752416281
 20
403.7583667087513
 30
0.0
 10
203.4013252473673
 20
403.7284373156702
 30
0.0
 10
203.553947011086
 20
403.679335369422
 30
0.0
 10
203.632099121359
 20
403.6600022470355
 30
0.0
 10
203.7078785797724
 20
403.6469608882824
 30
0.0
  0
LINE
  5
F6
330
1F
100
AcDbEntity
  8
0
  6
Continuous
 62
     8
370
     0
100
AcDbLine
 10
205.139243179
 20
386.6259089287
 30
0.0
 11
186.228513387
 21
386.6259089287
 31
0.0
  0
LINE
  5
F7
330
1F
100
AcDbEntity
  8
0
  6
Continuous
 62
     8
370
     0
100
AcDbLine
 10
205.9491364239
 20
385.2907835122
 30
0.0
 11
185.418620375
 21
385.2907835122
 31
0.0
  0
SPLINE
  5
F8
330
1F
100
AcDbEntity
  8
0
  6
Continuous
 62
     8
370
     0
100
AcDbSpline
210
0.0
220
0.0
230
1.0
 70
     8
 71
     3
 72
    32
 73
    28
 74
     0
 42
0.00000001
 43
0.00000001
 40
0.0
 40
0.0
 40
0.0
 40
0.0
 40
0.0625000000000002
 40
0.0625000000000002
 40
0.1250000000000004
 40
0.1250000000000004
 40
0.1875000000000006
 40
0.1875000000000006
 40
0.2500000000000007
 40
0.2500000000000007
 40
0.3750000000000007
 40
0.3750000000000007
 40
0.4375000000000008
 40
0.4375000000000008
 40
0.5000000000000008
 40
0.5000000000000008
 40
0.6250000000000007
 40
0.6250000000000007
 40
0.6875000000000007
 40
0.6875000000000007
 40
0.7500000000000006
 40
0.7500000000000006
 40
0.8750000000000003
 40
0.8750000000000003
 40
0.9375000000000001
 40
0.9375000000000001
 40
1.0
 40
1.0
 40
1.0
 40
1.0
 10
211.3319689450252
 20
342.6045740005488
 30
0.0
 10
211.3442232830987
 20
342.5664251292447
 30
0.0
 10
211.3616830977654
 20
342.5113201127689
 30
0.0
 10
211.4090052668542
 20
342.3698729122044
 30
0.0
 10
211.4393204056699
 20
342.2847290441168
 30
0.0
 10
211.5076101223752
 20
342.0756849011129
 30
0.0
 10
211.5468907374782
 20
341.9528822085326
 30
0.0
 10
211.6401478708831
 20
341.6656368724406
 30
0.0
 10
211.6939529135878
 20
341.5000701319908
 30
0.0
 10
211.877989558536
 20
340.9310558902125
 30
0.0
 10
212.0313283753302
 20
340.458551302179
 30
0.0
 10
212.3113788094084
 20
339.5669237193255
 30
0.0
 10
212.4135609485598
 20
339.2377705032553
 30
0.0
 10
212.6315916430748
 20
338.5211809667749
 30
0.0
 10
212.747185308431
 20
338.1346519105979
 30
0.0
 10
213.1047049541874
 20
336.9157785910826
 30
0.0
 10
213.358502149541
 20
336.0172128876598
 30
0.0
 10
213.7677475599278
 20
334.5745193887031
 30
0.0
 10
213.9088260319912
 20
334.0804479518724
 30
0.0
 10
214.199136611262
 20
333.0784167092989
 30
0.0
 10
214.3486829758382
 20
332.5691294331268
 30
0.0
 10
214.8126031444532
 20
331.0203427709274
 30
0.0
 10
215.1435730077694
 20
329.9591314131795
 30
0.0
 10
215.6735040007272
 20
328.3574486439094
 30
0.0
 10
215.8541155788024
 20
327.8201254400028
 30
0.0
 10
216.2171902696655
 20
326.7395317988895
 30
0.0
 10
216.4019881352532
 20
326.1976433216734
 30
0.0
 10
216.5746337404454
 20
325.6491819876742
 30
0.0
  0
SPLINE
  5
F9
330
1F
100
AcDbEntity
  8
0
  6
Continuous
 62
     8
370
     0
100
AcDbSpline
210
0.0
220
0.0
230
1.0
 70
     8
 71
     3
 72
    34
 73
    30
 74
     0
 42
0.00000001
 43
0.00000001
 40
0.0
 40
0.0
 40
0.0
 40
0.0
 40
0.0625000000000001
 40
0.0625000000000001
 40
0.1250000000000001
 40
0.1250000000000001
 40
0.2500000000000002
 40
0.2500000000000002
 40
0.3125000000000003
 40
0.3125000000000003
 40
0.3750000000000003
 40
0.3750000000000003
 40
0.5000000000000002
 40
0.5000000000000002
 40
0.5312500000000002
 40
0.5312500000000002
 40
0.5625000000000002
 40
0.5625000000000002
 40
0.6250000000000002
 40
0.6250000000000002
 40
0.6875000000000004
 40
0.6875000000000004
 40
0.7500000000000004
 40
0.7500000000000004
 40
0.8750000000000004
 40
0.8750000000000004
 40
0.9375000000000002
 40
0.9375000000000002
 40
1.0
 40
1.0
 40
1.0
 40
1.0
 10
174.7916352609937
 20
325.6441671523236
 30
0.0
 10
174.9644062397648
 20
326.1935473096929
 30
0.0
 10
175.149514428085
 20
326.7363297950802
 30
0.0
 10
175.5131660082047
 20
327.8186390543767
 30
0.0
 10
175.6938888624379
 20
328.3562228053764
 30
0.0
 10
176.2244692609132
 20
329.9598037819939
 30
0.0
 10
176.5554570789837
 20
331.0213853483519
 30
0.0
 10
177.0191907221817
 20
332.569393156146
 30
0.0
 10
177.1687730092029
 20
333.0787519785349
 30
0.0
 10
177.459308336962
 20
334.0816103383113
 30
0.0
 10
177.6006212910148
 20
334.576509283449
 30
0.0
 10
178.0107279207131
 20
336.0222012366337
 30
0.0
 10
178.2650209582381
 20
336.9224376450372
 30
0.0
 10
178.5634493255276
 20
337.9396163293154
 30
0.0
 10
178.6221360083533
 20
338.1376783399309
 30
0.0
 10
178.7371216036423
 20
338.5225393155125
 30
0.0
 10
178.7934657382615
 20
338.7093308594235
 30
0.0
 10
178.9561504901011
 20
339.2438489451444
 30
0.0
 10
179.0570382120786
 20
339.5687688897792
 30
0.0
 10
179.2430142979277
 20
340.1608743957958
 30
0.0
 10
179.328309664718
 20
340.4278632438483
 30
0.0
 10
179.482910686517
 20
340.9092639102381
 30
0.0
 10
179.5524520519324
 20
341.1246406861887
 30
0.0
 10
179.7363918704031
 20
341.6933489430637
 30
0.0
 10
179.8263298660148
 20
341.9718924305207
 30
0.0
 10
179.9285365911069
 20
342.2848439073194
 30
0.0
 10
179.9588140290427
 20
342.3699107834008
 30
0.0
 10
180.0061081712945
 20
342.5112596052207
 30
0.0
 10
180.0235743749197
 20
342.5663636537388
 30
0.0
 10
180.0358374717391
 20
342.6045003625476
 30
0.0
  0
SPLINE
  5
FA
330
1F
100
AcDbEntity
  8
0
  6
Continuous
 62
     8
370
     0
100
AcDbSpline
210
0.0
220
0.0
230
1.0
 70
     8
 71
     3
 72
    38
 73
    34
 74
     0
 42
0.00000001
 43
0.00000001
 40
0.0
 40
0.0
 40
0.0
 40
0.0
 40
0.0624999999999999
 40
0.0624999999999999
 40
0.1249999999999998
 40
0.1249999999999998
 40
0.2499999999999996
 40
0.2499999999999996
 40
0.3124999999999994
 40
0.3124999999999994
 40
0.3749999999999993
 40
0.3749999999999993
 40
0.4999999999999991
 40
0.4999999999999991
 40
0.5312499999999991
 40
0.5312499999999991
 40
0.5624999999999992
 40
0.5624999999999992
 40
0.6249999999999993
 40
0.6249999999999993
 40
0.6562499999999993
 40
0.6562499999999993
 40
0.6874999999999994
 40
0.6874999999999994
 40
0.7499999999999996
 40
0.7499999999999996
 40
0.8124999999999997
 40
0.8124999999999997
 40
0.8749999999999998
 40
0.8749999999999998
 40
0.9374999999999999
 40
0.9374999999999999
 40
1.0
 40
1.0
 40
1.0
 40
1.0
 10
181.7242283170849
 20
341.7084930634645
 30
0.0
 10
181.7531388741033
 20
341.7010797108432
 30
0.0
 10
181.7719848819581
 20
341.6777103374138
 30
0.0
 10
181.7849017491175
 20
341.598115253175
 30
0.0
 10
181.7794274119238
 20
341.5418417887525
 30
0.0
 10
181.7315671945044
 20
341.3244658511557
 30
0.0
 10
181.6571582465564
 20
341.1184628937267
 30
0.0
 10
181.4874580360929
 20
340.6978898937178
 30
0.0
 10
181.419680407392
 20
340.5387220842696
 30
0.0
 10
181.257874519496
 20
340.1735740444223
 30
0.0
 10
181.1633783849761
 20
339.9662543911867
 30
0.0
 10
180.8353291702178
 20
339.2672559652364
 30
0.0
 10
180.5572974857131
 20
338.6983214165004
 30
0.0
 10
180.1212853020444
 20
337.8197193666338
 30
0.0
 10
180.029346127591
 20
337.6348784832406
 30
0.0
 10
179.8394627145453
 20
337.2525997045962
 30
0.0
 10
179.7414289924253
 20
337.0548509771816
 30
0.0
 10
179.4390617351335
 20
336.4418697934793
 30
0.0
 10
179.2257269530181
 20
336.0071243435781
 30
0.0
 10
178.8930936975308
 20
335.316575665179
 30
0.0
 10
178.7800792069086
 20
335.080005117923
 30
0.0
 10
178.5502497951624
 20
334.5944076466481
 30
0.0
 10
178.4331293381098
 20
334.3447111078715
 30
0.0
 10
178.0809511153079
 20
333.5856780876188
 30
0.0
 10
177.844340610338
 20
333.0646311395662
 30
0.0
 10
177.3714863301261
 20
331.9959944553198
 30
0.0
 10
177.1353003817611
 20
331.4483732176407
 30
0.0
 10
176.6636676656316
 20
330.3301299043683
 30
0.0
 10
176.4277202036021
 20
329.7582846405895
 30
0.0
 10
175.9544046347903
 20
328.6025241475909
 30
0.0
 10
175.7180603810969
 20
328.0188708311568
 30
0.0
 10
175.2546231952227
 20
326.8377014795897
 30
0.0
 10
175.0243232834596
 20
326.2421386066286
 30
0.0
 10
174.81434014412
 20
325.6362401391431
 30
0.0
  0
SPLINE
  5
FB
330
1F
100
AcDbEntity
  8
0
  6
Continuous
 62
     8
370
     0
100
AcDbSpline
210
0.0
220
0.0
230
1.0
 70
     8
 71
     3
 72
    36
 73
    32
 74
     0
 42
0.00000001
 43
0.00000001
 40
0.0
 40
0.0
 40
0.0
 40
0.0
 40
0.0624999999999998
 40
0.0624999999999998
 40
0.1249999999999995
 40
0.1249999999999995
 40
0.1874999999999993
 40
0.1874999999999993
 40
0.2499999999999991
 40
0.2499999999999991
 40
0.3124999999999988
 40
0.3124999999999988
 40
0.3437499999999988
 40
0.3437499999999988
 40
0.3749999999999987
 40
0.3749999999999987
 40
0.4374999999999986
 40
0.4374999999999986
 40
0.4687499999999985
 40
0.4687499999999985
 40
0.4999999999999984
 40
0.4999999999999984
 40
0.6249999999999986
 40
0.6249999999999986
 40
0.6874999999999988
 40
0.6874999999999988
 40
0.749999999999999
 40
0.749999999999999
 40
0.8749999999999994
 40
0.8749999999999994
 40
1.0
 40
1.0
 40
1.0
 40
1.0
 10
216.5517060287068
 20
325.6413870078137
 30
0.0
 10
216.3409096387985
 20
326.2489491902143
 30
0.0
 10
216.1099150454265
 20
326.846062837448
 30
0.0
 10
215.6449616633237
 20
328.0306540205983
 30
0.0
 10
215.4079602528389
 20
328.6157324733377
 30
0.0
 10
214.9336171175982
 20
329.7737746800461
 30
0.0
 10
214.6965079676299
 20
330.3482079784873
 30
0.0
 10
214.2224541908366
 20
331.4716038587877
 30
0.0
 10
213.9851892803868
 20
332.0213681299538
 30
0.0
 10
213.5104921206471
 20
333.0933514383986
 30
0.0
 10
213.2731044338163
 20
333.6155960511812
 30
0.0
 10
212.9201291382782
 20
334.3757000743716
 30
0.0
 10
212.8028879298339
 20
334.6254596672239
 30
0.0
 10
212.5728992405257
 20
335.1110487870657
 30
0.0
 10
212.4598252653463
 20
335.3475851027108
 30
0.0
 10
212.1270604552591
 20
336.0379345611107
 30
0.0
 10
211.9137486015326
 20
336.4724353501704
 30
0.0
 10
211.6115185690912
 20
337.0848590358817
 30
0.0
 10
211.513542446419
 20
337.2823889308872
 30
0.0
 10
211.3238643278136
 20
337.6641857267239
 30
0.0
 10
211.2321500812012
 20
337.8485905736356
 30
0.0
 10
210.7979138877321
 20
338.7238354366122
 30
0.0
 10
210.5224279352404
 20
339.2880525522156
 30
0.0
 10
210.1979133753399
 20
339.9803187298493
 30
0.0
 10
210.1041593606568
 20
340.1862197164597
 30
0.0
 10
209.9428277499308
 20
340.5508314218727
 30
0.0
 10
209.8756157469585
 20
340.7090947606969
 30
0.0
 10
209.7077564683756
 20
341.1263304406357
 30
0.0
 10
209.6347978215162
 20
341.3293423392976
 30
0.0
 10
209.5726109388392
 20
341.6146082652634
 30
0.0
 10
209.5856260652263
 20
341.6936638143593
 30
0.0
 10
209.6432892014198
 20
341.7084932282619
 30
0.0
  0
LINE
  5
FC
330
1F
100
AcDbEntity
  8
0
  6
Continuous
 62
     8
370
     0
100
AcDbLine
 10
223.1923021795
 20
364.8780888494
 30
0.0
 11
214.6671271371
 21
364.8780888494
 31
0.0
  0
LINE
  5
FD
330
1F
100
AcDbEntity
  8
0
  6
Continuous
 62
     8
370
     0
100
AcDbLine
 10
223.1923021795
 20
364.8780888494
 30
0.0
 11
223.1923021795
 21
357.7569077338
 31
0.0
  0
LINE
  5
FE
330
1F
100
AcDbEntity
  8
0
  6
Continuous
 62
     8
370
     0
100
AcDbLine
 10
168.1754548522
 20
364.8780888494
 30
0.0
 11
168.1754548522
 21
357.7567885246
 31
0.0
  0
LINE
  5
FF
330
1F
100
AcDbEntity
  8
0
  6
Continuous
 62
     8
370
     0
100
AcDbLine
 10
176.700630826
 20
364.8780888494
 30
0.0
 11
168.1754548522
 21
364.8780888494
 31
0.0
  0
SPLINE
  5
100
330
1F
100
AcDbEntity
  8
0
  6
Continuous
 62
     8
370
     0
100
AcDbSpline
210
0.0
220
0.0
230
1.0
 70
    24
 71
     3
 72
    14
 73
    10
 74
     0
 42
0.00000001
 43
0.00000001
 40
0.0
 40
0.0
 40
0.0
 40
0.0
 40
0.25
 40
0.25
 40
0.5
 40
0.5
 40
0.75
 40
0.75
 40
1.0
 40
1.0
 40
1.0
 40
1.0
 10
223.1923023056424
 20
366.7837880390561
 30
0.0
 10
223.1923023056424
 20
366.7837880390561
 30
0.0
 10
223.1923023056424
 20
366.7341877689828
 30
0.0
 10
223.1923023056424
 20
366.5432627593428
 30
0.0
 10
223.1923023056424
 20
366.4020131406143
 30
0.0
 10
223.1923023056424
 20
366.0492297233123
 30
0.0
 10
223.1923023056424
 20
365.8378347299489
 30
0.0
 10
223.1923023056424
 20
365.3769009822796
 30
0.0
 10
223.1923023056424
 20
365.1275435857205
 30
0.0
 10
223.1923023056424
 20
364.8780880390561
 30
0.0
  0
LINE
  5
101
330
1F
100
AcDbEntity
  8
0
  6
Continuous
 62
     8
370
     0
100
AcDbLine
 10
168.1754548522
 20
364.8780888494
 30
0.0
 11
168.1754548522
 21
366.7837871786
 31
0.0
  0
SPLINE
  5
102
330
1F
100
AcDbEntity
  8
0
  6
Continuous
 62
     8
370
     0
100
AcDbSpline
210
0.0
220
0.0
230
1.0
 70
     8
 71
     3
 72
    50
 73
    46
 74
     0
 42
0.00000001
 43
0.00000001
 40
0.0
 40
0.0
 40
0.0
 40
0.0
 40
0.0312500000000003
 40
0.0312500000000003
 40
0.0625000000000006
 40
0.0625000000000006
 40
0.0937500000000009
 40
0.0937500000000009
 40
0.1250000000000012
 40
0.1250000000000012
 40
0.1875000000000018
 40
0.1875000000000018
 40
0.2500000000000023
 40
0.2500000000000023
 40
0.2812500000000017
 40
0.2812500000000017
 40
0.3125000000000011
 40
0.3125000000000011
 40
0.375000000000001
 40
0.375000000000001
 40
0.4062500000000011
 40
0.4062500000000011
 40
0.4375000000000011
 40
0.4375000000000011
 40
0.5000000000000013
 40
0.5000000000000013
 40
0.5625000000000017
 40
0.5625000000000017
 40
0.6250000000000019
 40
0.6250000000000019
 40
0.6562500000000024
 40
0.6562500000000024
 40
0.687500000000003
 40
0.687500000000003
 40
0.7500000000000027
 40
0.7500000000000027
 40
0.8125000000000024
 40
0.8125000000000024
 40
0.8750000000000022
 40
0.8750000000000022
 40
0.906250000000002
 40
0.906250000000002
 40
0.9375000000000017
 40
0.9375000000000017
 40
1.0
 40
1.0
 40
1.0
 40
1.0
 10
203.0659585797724
 20
401.6847968012104
 30
0.0
 10
202.8895606672447
 20
401.6985621964856
 30
0.0
 10
202.7133293866841
 20
401.7283138273461
 30
0.0
 10
202.3707357165078
 20
401.8157619800841
 30
0.0
 10
202.2036058861446
 20
401.8733718774589
 30
0.0
 10
201.8773782739745
 20
402.0149399117871
 30
0.0
 10
201.7173402414508
 20
402.0998343251566
 30
0.0
 10
201.4099321396183
 20
402.2915350242624
 30
0.0
 10
201.2638835632808
 20
402.3971965000354
 30
0.0
 10
200.842848855845
 20
402.7361152122451
 30
0.0
 10
200.5854639499564
 20
402.9918578014107
 30
0.0
 10
200.0833622197376
 20
403.5208560874785
 30
0.0
 10
199.8384072168377
 20
403.7932755515029
 30
0.0
 10
199.4476259676199
 20
404.1776336077755
 30
0.0
 10
199.3134627623499
 20
404.3017685196729
 30
0.0
 10
199.0324918728031
 20
404.5369818185169
 30
0.0
 10
198.8849509292397
 20
404.6484176561082
 30
0.0
 10
198.4288550146784
 20
404.9507344184511
 30
0.0
 10
198.1044063613424
 20
405.1114649774244
 30
0.0
 10
197.5882045270514
 20
405.2943377306904
 30
0.0
 10
197.4101568595148
 20
405.3460679853635
 30
0.0
 10
197.052584875271
 20
405.4302377497921
 30
0.0
 10
196.8728275690966
 20
405.4629672673226
 30
0.0
 10
196.3311058085542
 20
405.5379113721552
 30
0.0
 10
195.9667232114761
 20
405.5572082139767
 30
0.0
 10
195.2329702671204
 20
405.5499216650306
 30
0.0
 10
194.8644089889351
 20
405.5218218851969
 30
0.0
 10
194.1484864143654
 20
405.4025827735551
 30
0.0
 10
193.7982489206285
 20
405.3113380907344
 30
0.0
 10
193.2880794503248
 20
405.1107262893427
 30
0.0
 10
193.1192806748137
 20
405.032109103587
 30
0.0
 10
192.7997197629397
 20
404.8577942944219
 30
0.0
 10
192.6476786903342
 20
404.761795206854
 30
0.0
 10
192.2119034598217
 20
404.4504301471369
 30
0.0
 10
191.9488816517334
 20
404.211230282396
 30
0.0
 10
191.4474585709605
 20
403.7049710870258
 30
0.0
 10
191.2086207636021
 20
403.4384294050657
 30
0.0
 10
190.7157235188901
 20
402.9251553455985
 30
0.0
 10
190.4608949539296
 20
402.678801488937
 30
0.0
 10
190.0486332313459
 20
402.3566464154403
 30
0.0
 10
189.9062061539123
 20
402.2569419969873
 30
0.0
 10
189.6086261734391
 20
402.0770724896692
 30
0.0
 10
189.451921146279
 20
401.9963941405123
 30
0.0
 10
188.9733200352343
 20
401.7949583661044
 30
0.0
 10
188.6434435892815
 20
401.7114574262275
 30
0.0
 10
188.3017985797724
 20
401.6847968012104
 30
0.0
  0
SPLINE
  5
103
330
1F
100
AcDbEntity
  8
0
  6
Continuous
 62
     8
370
     0
100
AcDbSpline
210
0.0
220
0.0
230
1.0
 70
     8
 71
     3
 72
    20
 73
    16
 74
     0
 42
0.00000001
 43
0.00000001
 40
0.0
 40
0.0
 40
0.0
 40
0.0
 40
0.125
 40
0.125
 40
0.25
 40
0.25
 40
0.375
 40
0.375
 40
0.5
 40
0.5
 40
0.625
 40
0.625
 40
0.75
 40
0.75
 40
1.0
 40
1.0
 40
1.0
 40
1.0
 10
188.3017985797724
 20
401.6847968012104
 30
0.0
 10
188.0561742865373
 20
401.6656292530397
 30
0.0
 10
187.8146663124362
 20
401.6726895289298
 30
0.0
 10
187.3394905981787
 20
401.7372167561761
 30
0.0
 10
187.1032343106817
 20
401.7957178922879
 30
0.0
 10
186.6518551274741
 20
401.9624413206457
 30
0.0
 10
186.4386278125088
 20
402.0692217865405
 30
0.0
 10
186.0360903659783
 20
402.3292890136455
 30
0.0
 10
185.8448143833009
 20
402.4850474915741
 30
0.0
 10
185.5033883211176
 20
402.8316736084247
 30
0.0
 10
185.3515718417895
 20
403.0228248099806
 30
0.0
 10
185.0851671583552
 20
403.4414099381776
 30
0.0
 10
184.9711121424361
 20
403.6696807704769
 30
0.0
 10
184.7014423548394
 20
404.3757568707211
 30
0.0
 10
184.6107585797724
 20
404.8926232067782
 30
0.0
 10
184.6107585797724
 20
405.4125429233746
 30
0.0
  0
SPLINE
  5
104
330
1F
100
AcDbEntity
  8
0
  6
Continuous
 62
     8
370
     0
100
AcDbSpline
210
0.0
220
0.0
230
1.0
 70
     8
 71
     3
 72
    20
 73
    16
 74
     0
 42
0.00000001
 43
0.00000001
 40
0.0
 40
0.0
 40
0.0
 40
0.0
 40
0.1250000000000003
 40
0.1250000000000003
 40
0.2500000000000006
 40
0.2500000000000006
 40
0.3750000000000008
 40
0.3750000000000008
 40
0.5000000000000011
 40
0.5000000000000011
 40
0.6250000000000013
 40
0.6250000000000013
 40
0.7500000000000017
 40
0.7500000000000017
 40
1.0
 40
1.0
 40
1.0
 40
1.0
 10
206.7569985797724
 20
405.4125429233746
 30
0.0
 10
206.7569985797724
 20
405.1530546199071
 30
0.0
 10
206.7350385039972
 20
404.8974489848918
 30
0.0
 10
206.6459488224271
 20
404.3941815633401
 30
0.0
 10
206.5776468720385
 20
404.1442507894215
 30
0.0
 10
206.3979645711515
 20
403.6724918529052
 30
0.0
 10
206.2867373856822
 20
403.4487855961014
 30
0.0
 10
206.019055245949
 20
403.0264972211608
 30
0.0
 10
205.8658269732311
 20
402.8333914849881
 30
0.0
 10
205.5247218407481
 20
402.4866183610603
 30
0.0
 10
205.3340734670583
 20
402.3310417860508
 30
0.0
 10
204.9305086869321
 20
402.0699168899433
 30
0.0
 10
204.7167311341581
 20
401.962768813279
 30
0.0
 10
204.0379346110333
 20
401.7119817822042
 30
0.0
 10
203.5564910566819
 20
401.6465175872262
 30
0.0
 10
203.0659585797724
 20
401.6847968012104
 30
0.0
  0
ARC
  5
105
330
1F
100
AcDbEntity
  8
0
  6
Continuous
 62
     8
370
     0
100
AcDbCircle
 10
85.8553785798
 20
343.9655380391
 30
0.0
 40
198.6943
100
AcDbArc
 50
357.303638876
 51
2.696361124
  0
ARC
  5
106
330
1F
100
AcDbEntity
  8
0
  6
Continuous
 62
     8
370
     0
100
AcDbCircle
 10
272.2068336316
 20
335.1892880391
 30
0.0
 40
12.13630000000004
100
AcDbArc
 50
270.0
 51
357.303638876
  0
LINE
  5
107
330
1F
100
AcDbEntity
  8
0
  6
Continuous
 62
     8
370
     0
100
AcDbLine
 10
119.1609237762
 20
323.0529880698
 30
0.0
 11
185.2526791813
 21
323.0529880698
 31
0.0
  0
LINE
  5
108
330
1F
100
AcDbEntity
  8
0
  6
Continuous
 62
     8
370
     0
100
AcDbLine
 10
206.1150785489
 20
323.0529880698
 30
0.0
 11
272.2068313928
 21
323.0529880698
 31
0.0
  0
ARC
  5
109
330
1F
100
AcDbEntity
  8
0
  6
Continuous
 62
     8
370
     0
100
AcDbCircle
 10
119.1609235279
 20
335.1892880391
 30
0.0
 40
12.13630000000001
100
AcDbArc
 50
182.696361124
 51
270.0
  0
ARC
  5
10A
330
1F
100
AcDbEntity
  8
0
  6
Continuous
 62
     8
370
     0
100
AcDbCircle
 10
305.5123785798
 20
343.9655380391
 30
0.0
 40
198.6943
100
AcDbArc
 50
177.303638876
 51
182.696361124
  0
ARC
  5
10B
330
1F
100
AcDbEntity
  8
0
  6
Continuous
 62
     8
370
     0
100
AcDbCircle
 10
119.1609235279
 20
352.7417880391
 30
0.0
 40
12.13630000000001
100
AcDbArc
 50
90.0
 51
177.303638876
  0
LINE
  5
10C
330
1F
100
AcDbEntity
  8
0
  6
Continuous
 62
     8
370
     0
100
AcDbLine
 10
168.1754548522
 20
364.8780888494
 30
0.0
 11
119.1609237762
 21
364.8780888494
 31
0.0
  0
LINE
  5
10D
330
1F
100
AcDbEntity
  8
0
  6
Continuous
 62
     8
370
     0
100
AcDbLine
 10
272.2068313928
 20
364.8780888494
 30
0.0
 11
223.1923021795
 21
364.8780888494
 31
0.0
  0
ARC
  5
10E
330
1F
100
AcDbEntity
  8
0
  6
Continuous
 62
     8
370
     0
100
AcDbCircle
 10
272.2068336316
 20
352.7417880391
 30
0.0
 40
12.13630000000004
100
AcDbArc
 50
2.696361124
 51
90.0
  0
LINE
  5
10F
330
1F
100
AcDbEntity
  8
0
  6
Continuous
 62
     8
370
     0
100
AcDbLine
 10
119.1609237762
 20
323.0529880698
 30
0.0
 11
119.1609237762
 21
321.147287878
 31
0.0
  0
LINE
  5
110
330
1F
100
AcDbEntity
  8
0
  6
Continuous
 62
     8
370
     0
100
AcDbLine
 10
206.7569986871
 20
408.1883920904
 30
0.0
 11
206.7569986871
 21
405.4125441785
 31
0.0
  0
LINE
  5
111
330
1F
100
AcDbEntity
  8
0
  6
Continuous
 62
     8
370
     0
100
AcDbLine
 10
184.6107595088
 20
405.4125441785
 30
0.0
 11
184.6107595088
 21
408.1883920904
 31
0.0
  0
LWPOLYLINE
  5
112
330
1F
100
AcDbEntity
  8
0
  6
Continuous
 62
     8
370
     0
100
AcDbPolyline
 90
        8
 70
   128
 43
0.0
 10
184.796020058
 20
408.7809218641
 10
184.7527265968
 20
408.7628840085
 10
184.7004440101
 20
408.7152226444
 10
184.657485825
 20
408.6428998585
 10
184.6258618357
 20
408.5493056651
 10
184.6070509823
 20
408.4388135548
 10
184.6019380214
 20
408.3166016813
 10
184.6107595088
 20
408.1883920904
  0
LWPOLYLINE
  5
113
330
1F
100
AcDbEntity
  8
0
  6
Continuous
 62
     8
370
     0
100
AcDbPolyline
 90
        9
 70
   128
 43
0.0
 10
206.4926071512
 20
408.7765483733
 10
206.5558725922
 20
408.7836487766
 10
206.6150311334
 20
408.7628840085
 10
206.6673132544
 20
408.7152226444
 10
206.7102719052
 20
408.6428998585
 10
206.7418961274
 20
408.5493056651
 10
206.7607053509
 20
408.4388135548
 10
206.7658192432
 20
408.3166016813
 10
206.7569986871
 20
408.1883920904
  0
SPLINE
  5
114
330
1F
100
AcDbEntity
  8
0
  6
Continuous
 62
     8
370
     0
100
AcDbSpline
210
0.0
220
0.0
230
1.0
 70
     8
 71
     3
 72
    13
 73
     9
 74
     0
 42
0.00000001
 43
0.00000001
 40
0.0
 40
0.0
 40
0.0
 40
0.0
 40
0.0059890353709312
 40
0.2511913478467574
 40
0.4963936185464543
 40
0.7415958198708892
 40
0.9867981323467152
 40
0.9999999999999999
 40
0.9999999999999999
 40
0.9999999999999999
 40
0.9999999999999999
 10
286.3032181235113
 20
337.500109485108
 30
0.0
 10
286.3158415002002
 20
337.5236077279949
 30
0.0
 10
286.8452895345621
 20
338.50916799559
 30
0.0
 10
287.3517239114814
 20
340.7040146159386
 30
0.0
 10
287.743059289765
 20
343.9652650420534
 30
0.0
 10
287.3537729676032
 20
347.2281541276628
 30
0.0
 10
286.8329656155358
 20
349.4515270087497
 30
0.0
 10
286.2857492154486
 20
350.4642111944525
 30
0.0
 10
286.2577919336118
 20
350.5159492220167
 30
0.0
  0
SPLINE
  5
115
330
1F
100
AcDbEntity
  8
0
  6
Continuous
 62
     8
370
     0
100
AcDbSpline
210
0.0
220
0.0
230
1.0
 70
     8
 71
     3
 72
    10
 73
     6
 74
     0
 42
0.00000001
 43
0.00000001
 40
0.0
 40
0.0
 40
0.0
 40
0.0
 40
0.4848710549153039
 40
0.9697418723169425
 40
1.0
 40
1.0
 40
1.0
 40
1.0
 10
103.7417907686987
 20
343.9655384595874
 30
0.0
 10
103.8157066928283
 20
342.8779382198599
 30
0.0
 10
103.9635385048799
 20
340.7027382731648
 30
0.0
 10
104.5257514287812
 20
338.4709174709684
 30
0.0
 10
105.0777481499752
 20
337.4503339424382
 30
0.0
 10
105.1101718517103
 20
337.3903859488103
 30
0.0
  0
SPLINE
  5
116
330
1F
100
AcDbEntity
  8
0
  6
Continuous
 62
     8
370
     0
100
AcDbSpline
210
0.0
220
0.0
230
1.0
 70
     8
 71
     3
 72
    10
 73
     6
 74
     0
 42
0.00000001
 43
0.00000001
 40
0.0
 40
0.0
 40
0.0
 40
0.0
 40
0.0163490689153162
 40
0.5081744835737734
 40
1.0
 40
1.0
 40
1.0
 40
1.0
 10
105.0651405425825
 20
350.4564358468536
 30
0.0
 10
105.0479406533278
 20
350.424467604544
 30
0.0
 10
104.5133203098209
 20
349.4308058180188
 30
0.0
 10
103.9654146023391
 20
347.2274146077394
 30
0.0
 10
103.8163320517201
 20
345.052830583965
 30
0.0
 10
103.7417907686987
 20
343.9655384595874
 30
0.0
  0
SPLINE
  5
117
330
1F
100
AcDbEntity
  8
0
  6
Continuous
 62
     8
370
     0
100
AcDbSpline
210
0.0
220
0.0
230
1.0
 70
     8
 71
     3
 72
    45
 73
    41
 74
     0
 42
0.00000001
 43
0.00000001
 40
0.0
 40
0.0
 40
0.0
 40
0.0
 40
0.0053585833099721
 40
0.0328386613437212
 40
0.0603187288420712
 40
0.08779882614116
 40
0.115278906921839
 40
0.1427589764108451
 40
0.1702390368501636
 40
0.1977191443774926
 40
0.2251991907253394
 40
0.2526792938483823
 40
0.2801593699861856
 40
0.3076394374845355
 40
0.3351195332575886
 40
0.3625995918451569
 40
0.3900796732545126
 40
0.4175597637956552
 40
0.4450398395623807
 40
0.4725199175485315
 40
0.4999999993604323
 40
0.5274800723433314
 40
0.5549601534029175
 40
0.5824402303914912
 40
0.6099203169648945
 40
0.6374004008265161
 40
0.6648804682837415
 40
0.6923605601675594
 40
0.7198406211117041
 40
0.7473206972495073
 40
0.774800804164657
 40
0.8022808505125039
 40
0.8297609572682608
 40
0.857241016936006
 40
0.8847210864250121
 40
0.9122011709978011
 40
0.9396812682968898
 40
0.9671613292410344
 40
0.9946414033855457
 40
1.0
 40
1.0
 40
1.0
 40
1.0
 10
246.8901794822969
 20
321.1472878779653
 30
0.0
 10
247.0741826340083
 20
320.9334150934131
 30
0.0
 10
248.2017973104437
 20
319.6227522677599
 30
0.0
 10
250.6754755699169
 20
317.5961082161837
 30
0.0
 10
254.2640119477361
 20
315.1521858300624
 30
0.0
 10
258.1743304502885
 20
313.2348198827001
 30
0.0
 10
262.2924883101845
 20
311.8342717152117
 30
0.0
 10
266.56062565544
 20
310.9859078017807
 30
0.0
 10
270.9023393151717
 20
310.7011924938334
 30
0.0
 10
275.2442437893399
 20
310.9858066666816
 30
0.0
 10
279.5118077174018
 20
311.8346736697878
 30
0.0
 10
283.6320748238724
 20
313.2333160772469
 30
0.0
 10
287.5345301772263
 20
315.1577942261292
 30
0.0
 10
291.1524045474997
 20
317.5751818653412
 30
0.0
 10
294.4237982663581
 20
320.4441109220639
 30
0.0
 10
297.2927269339585
 20
323.715506059531
 30
0.0
 10
299.7101140843258
 20
327.3333796116233
 30
0.0
 10
301.6345974738657
 20
331.2358336084616
 30
0.0
 10
303.0332362658496
 20
335.356099475602
 30
0.0
 10
303.8821105236586
 20
339.6236733473955
 30
0.0
 10
304.1666929426169
 20
343.9655379979753
 30
0.0
 10
303.8821103969968
 20
348.307402790123
 30
0.0
 10
303.0332362797618
 20
352.5749764361832
 30
0.0
 10
301.6345976870403
 20
356.6952424060227
 30
0.0
 10
299.7101138314225
 20
360.5976961865163
 30
0.0
 10
297.2927264819398
 20
364.2155699522895
 30
0.0
 10
294.4237991428343
 20
367.4869668120529
 30
0.0
 10
291.1524047021222
 20
370.355895125187
 30
0.0
 10
287.5345296803912
 20
372.7732807427697
 30
0.0
 10
283.6320745014381
 20
374.6977586143466
 30
0.0
 10
279.5118080916356
 20
376.0964035577863
 30
0.0
 10
275.2442438156427
 20
376.9452709410269
 30
0.0
 10
270.9023393140473
 20
377.2298812866247
 30
0.0
 10
266.560625633637
 20
376.9451698025259
 30
0.0
 10
262.2924879201594
 20
376.0968055260125
 30
0.0
 10
258.174330831531
 20
374.6962547575649
 30
0.0
 10
254.2640122267804
 20
372.7788893290066
 30
0.0
 10
250.6754762229845
 20
370.3349680692112
 30
0.0
 10
248.2017944546128
 20
368.3083268861056
 30
0.0
 10
247.0741825807754
 20
366.9976609417204
 30
0.0
 10
246.8901794822969
 20
366.7837871785644
 30
0.0
  0
SPLINE
  5
118
330
1F
100
AcDbEntity
  8
0
  6
Continuous
 62
     8
370
     0
100
AcDbSpline
210
0.0
220
0.0
230
1.0
 70
     8
 71
     3
 72
    26
 73
    22
 74
     0
 42
0.00000001
 43
0.00000001
 40
0.0
 40
0.0
 40
0.0
 40
0.0
 40
0.0549601643934272
 40
0.109920321135354
 40
0.1648804734384306
 40
0.2198406135479795
 40
0.2748007771363165
 40
0.3297609573088744
 40
0.3847210786674073
 40
0.4396812929062734
 40
0.4946414459515054
 40
0.5496015635977648
 40
0.6045617496277229
 40
0.6595218712759848
 40
0.7144820871002691
 40
0.7694421805655872
 40
0.8244023875812991
 40
0.8793625406265311
 40
0.9343226763928562
 40
0.9892828332299797
 40
1.0
 40
1.0
 40
1.0
 40
1.0
 10
87.28291433771035
 20
343.9655384595874
 30
0.0
 10
87.3376822878493
 20
342.5182500428421
 30
0.0
 10
87.44721818050246
 20
339.6236734108414
 30
0.0
 10
88.32832035219428
 20
335.3560992252018
 30
0.0
 10
89.7183257246866
 20
331.2358355897333
 30
0.0
 10
91.64511278032415
 20
327.3333780577814
 30
0.0
 10
94.06188071047573
 20
323.7155032525151
 30
0.0
 10
96.93098359701021
 20
320.4441163302523
 30
0.0
 10
100.2023257742667
 20
317.575176564682
 30
0.0
 10
103.8202181893526
 20
315.1577967202216
 30
0.0
 10
107.7226687565337
 20
313.2333174863658
 30
0.0
 10
111.8429357957425
 20
311.8346712161047
 30
0.0
 10
116.1104979334455
 20
310.9858081119121
 30
0.0
 10
120.4524045533043
 20
310.7011923979581
 30
0.0
 10
124.7941172794809
 20
310.985906820258
 30
0.0
 10
129.0622564573342
 20
311.8342731521097
 30
0.0
 10
133.1804143099067
 20
313.2348179975101
 30
0.0
 10
137.0907314236289
 20
315.1521870707746
 30
0.0
 10
140.6792672382623
 20
317.5961080449215
 30
0.0
 10
143.1529454166558
 20
319.6227522742342
 30
0.0
 10
144.2805600956303
 20
320.9334150943214
 30
0.0
 10
144.464563247756
 20
321.1472878779653
 30
0.0
  0
SPLINE
  5
119
330
1F
100
AcDbEntity
  8
0
  6
Continuous
 62
     8
370
     0
100
AcDbSpline
210
0.0
220
0.0
230
1.0
 70
     8
 71
     3
 72
    26
 73
    22
 74
     0
 42
0.00000001
 43
0.00000001
 40
0.0
 40
0.0
 40
0.0
 40
0.0
 40
0.0107171933515674
 40
0.0656773422696134
 40
0.1206374647869253
 40
0.1755976176915549
 40
0.2305578321508779
 40
0.285517925475594
 40
0.3404781396161316
 40
0.3954382595806445
 40
0.4503984454700003
 40
0.5053585705598832
 40
0.5603187234645128
 40
0.6152789244543844
 40
0.6702390378938347
 40
0.7251992356650847
 40
0.780159404017351
 40
0.835119536050813
 40
0.8900796906569836
 40
0.9450398534051788
 40
1.0
 40
1.0
 40
1.0
 40
1.0
 10
144.464563247756
 20
366.7837871785644
 30
0.0
 10
144.2805601488632
 20
366.9976609408122
 30
0.0
 10
143.1529482724867
 20
368.3083268796314
 30
0.0
 10
140.6792665851947
 20
370.3349682404734
 30
0.0
 10
137.0907311445847
 20
372.7788880882947
 30
0.0
 10
133.1804139286648
 20
374.6962566427557
 30
0.0
 10
129.0622568473587
 20
376.0968040891136
 30
0.0
 10
124.7941173012835
 20
376.9451707840471
 30
0.0
 10
120.4524045544292
 20
377.2298813825001
 30
0.0
 10
116.1104979071425
 20
376.9452694957984
 30
0.0
 10
111.8429354215074
 20
376.0964060114712
 30
0.0
 10
107.722669078969
 20
374.6977572052271
 30
0.0
 10
103.8202186861857
 20
372.7732782486774
 30
0.0
 10
100.2023256196515
 20
370.3559004258454
 30
0.0
 10
96.93098272052902
 20
367.4869614038619
 30
0.0
 10
94.06188116246025
 20
364.215572759314
 30
0.0
 10
91.64511303316972
 20
360.597697740324
 30
0.0
 10
89.71832551204304
 20
356.6952404248808
 30
0.0
 10
88.32832033798249
 20
352.5749766860977
 30
0.0
 10
87.44721831117366
 20
348.3074027284902
 30
0.0
 10
87.33768232349914
 20
345.4128264074305
 30
0.0
 10
87.28291433771035
 20
343.9655384595874
 30
0.0
  0
LINE
  5
11A
330
1F
100
AcDbEntity
  8
0
  6
Continuous
 62
     7
370
    15
100
AcDbLine
 10
371.4252023721
 20
308.8049578096
 30
0.0
 11
389.1359886849
 21
309.1598792549
 31
0.0
  0
LINE
  5
11B
330
1F
100
AcDbEntity
  8
0
  6
Continuous
 62
     7
370
    15
100
AcDbLine
 10
389.1359886849
 20
378.7711976643
 30
0.0
 11
371.4252023721
 21
379.1261172469
 31
0.0
  0
ARC
  5
11C
330
1F
100
AcDbEntity
  8
0
  6
Continuous
 62
     7
370
    15
100
AcDbCircle
 10
389.0803863036
 20
312.1683656584
 30
0.0
 40
3.009000000000034
100
AcDbArc
 50
271.0588103613
 51
332.8659656789
  0
ARC
  5
11D
330
1F
100
AcDbEntity
  8
0
  6
Continuous
 62
     7
370
    15
100
AcDbCircle
 10
389.0803863036
 20
375.7627104197
 30
0.0
 40
3.009000000000021
100
AcDbArc
 50
27.1310842192
 51
88.9411896387
  0
ARC
  5
11E
330
1F
100
AcDbEntity
  8
0
  6
Continuous
 62
     7
370
    15
100
AcDbCircle
 10
327.4137061137
 20
343.9655380391
 30
0.0
 40
72.38795108347487
100
AcDbArc
 50
332.7269861238
 51
346.6523329408
  0
ARC
  5
11F
330
1F
100
AcDbEntity
  8
0
  6
Continuous
 62
     7
370
    15
100
AcDbCircle
 10
327.4137061137
 20
343.9655380391
 30
0.0
 40
72.38795108347482
100
AcDbArc
 50
13.3478079474
 51
27.2728748476
  0
ARC
  5
120
330
1F
100
AcDbEntity
  8
0
  6
Continuous
 62
     7
370
    15
100
AcDbCircle
 10
401.9897914369
 20
333.9355380389
 30
0.0
 40
6.017999999875443
100
AcDbArc
 50
228.5903778903
 51
236.4408667787
  0
ARC
  5
121
330
1F
100
AcDbEntity
  8
0
  6
Continuous
 62
     7
370
    15
100
AcDbCircle
 10
401.9897914369
 20
353.9955380392
 30
0.0
 40
6.017999999875404
100
AcDbArc
 50
123.5082207079
 51
131.4096221097
  0
ARC
  5
122
330
1F
100
AcDbEntity
  8
0
  6
Continuous
 62
     7
370
    15
100
AcDbCircle
 10
411.0797257419
 20
333.9355380391
 30
0.0
 40
6.018000000000062
100
AcDbArc
 50
303.5357208799
 51
311.4096221093
  0
ARC
  5
123
330
1F
100
AcDbEntity
  8
0
  6
Continuous
 62
     7
370
    15
100
AcDbCircle
 10
411.0797257419
 20
353.9955380391
 30
0.0
 40
6.018000000000105
100
AcDbArc
 50
48.5903778907
 51
56.4695494591
  0
ARC
  5
124
330
1F
100
AcDbEntity
  8
0
  6
Continuous
 62
     7
370
    15
100
AcDbCircle
 10
391.9867158521
 20
328.6389037089
 30
0.0
 40
6.022542689417342
100
AcDbArc
 50
346.704740274
 51
0.0000056709
  0
ARC
  5
125
330
1F
100
AcDbEntity
  8
0
  6
Continuous
 62
     7
370
    15
100
AcDbCircle
 10
391.9867158521
 20
359.2921723692
 30
0.0
 40
6.022542689417302
100
AcDbArc
 50
359.9999943291
 51
13.2918241779
  0
SPLINE
  5
126
330
1F
100
AcDbEntity
  8
0
  6
Continuous
 62
     7
370
    15
100
AcDbSpline
210
0.0
220
0.0
230
1.0
 70
     8
 71
     3
 72
    14
 73
    10
 74
     0
 42
0.00000001
 43
0.00000001
 40
0.0
 40
0.0
 40
0.0
 40
0.0
 40
0.1911523580238311
 40
0.4795604362291281
 40
0.69204630509849
 40
0.8279185999834824
 40
0.9114465391796995
 40
0.969151850356737
 40
1.0
 40
1.0
 40
1.0
 40
1.0
 10
428.1000509965123
 20
366.7230761225704
 30
0.0
 10
427.6341564194216
 20
366.7318592534492
 30
0.0
 10
426.4653264403611
 20
366.7538942527513
 30
0.0
 10
424.743160633428
 20
366.380197967138
 30
0.0
 10
423.2415411720337
 20
365.869167132584
 30
0.0
 10
422.2015102775033
 20
365.380076495668
 30
0.0
 10
421.6662908429553
 20
365.0683335462933
 30
0.0
 10
421.2810459319689
 20
364.837287935437
 30
0.0
 10
421.0949671106436
 20
364.7138703215891
 30
0.0
 10
421.0301453942192
 20
364.6708770270828
 30
0.0
  0
SPLINE
  5
127
330
1F
100
AcDbEntity
  8
0
  6
Continuous
 62
     7
370
    15
100
AcDbSpline
210
0.0
220
0.0
230
1.0
 70
     8
 71
     3
 72
    15
 73
    11
 74
     0
 42
0.00000001
 43
0.00000001
 40
0.0
 40
0.0
 40
0.0
 40
0.0
 40
0.0308455138821573
 40
0.0885456438148564
 40
0.1287849250285368
 40
0.1721539167663771
 40
0.308014310063114
 40
0.5204815266589607
 40
0.8088643872876201
 40
1.0
 40
1.0
 40
1.0
 40
1.0
 10
421.0301453942192
 20
323.2601989607695
 30
0.0
 10
421.0948038475352
 20
323.2172730103655
 30
0.0
 10
421.2804134761774
 20
323.0940490650811
 30
0.0
 10
421.5739421879964
 20
322.9189693991053
 30
0.0
 10
421.8440401260202
 20
322.7572685638774
 30
0.0
 10
422.3088743335525
 20
322.501177544917
 30
0.0
 10
423.2351117943455
 20
322.0645296090532
 30
0.0
 10
424.7460210958155
 20
321.5497140039171
 30
0.0
 10
426.4648274349847
 20
321.1773832697108
 30
0.0
 10
427.6340142364986
 20
321.1992741721484
 30
0.0
 10
428.1000509965123
 20
321.2079998652819
 30
0.0
  0
LINE
  5
128
330
1F
100
AcDbEntity
  8
0
  6
Continuous
 62
     7
370
    15
100
AcDbLine
 10
415.0602587262
 20
333.434038012
 30
0.0
 11
416.0632586801
 21
333.434038012
 31
0.0
  0
LINE
  5
129
330
1F
100
AcDbEntity
  8
0
  6
Continuous
 62
     7
370
    15
100
AcDbLine
 10
416.0632586801
 20
354.4970384415
 30
0.0
 11
415.0602587262
 21
354.4970384415
 31
0.0
  0
SPLINE
  5
12A
330
1F
100
AcDbEntity
  8
0
  6
Continuous
 62
     7
370
    15
100
AcDbSpline
210
0.0
220
0.0
230
1.0
 70
     8
 71
     3
 72
    14
 73
    10
 74
     0
 42
0.00000001
 43
0.00000001
 40
0.0
 40
0.0
 40
0.0
 40
0.0
 40
0.1410594184306638
 40
0.2873833469363026
 40
0.413851042524051
 40
0.5271832839573752
 40
0.6409371966161063
 40
0.8861140371241221
 40
1.0
 40
1.0
 40
1.0
 40
1.0
 10
428.0992581899808
 20
366.7830830986981
 30
0.0
 10
427.9354138330716
 20
366.7833905122924
 30
0.0
 10
427.6016102473978
 20
366.7840168125323
 30
0.0
 10
427.0522179294718
 20
366.7810094855193
 30
0.0
 10
426.501714023674
 20
366.7758461473293
 30
0.0
 10
425.9732012254818
 20
366.7718846355235
 30
0.0
 10
425.3353830177605
 20
366.7733986270907
 30
0.0
 10
424.8202232286283
 20
366.7837454984954
 30
0.0
 10
424.3643900559865
 20
366.7825100899629
 30
0.0
 10
424.2198108924312
 20
366.7821182485108
 30
0.0
  0
SPLINE
  5
12B
330
1F
100
AcDbEntity
  8
0
  6
Continuous
 62
     7
370
    15
100
AcDbSpline
210
0.0
220
0.0
230
1.0
 70
     8
 71
     3
 72
     9
 73
     5
 74
     0
 42
0.00000001
 43
0.00000001
 40
0.0
 40
0.0
 40
0.0
 40
0.0
 40
0.3516068020945318
 40
1.0
 40
1.0
 40
1.0
 40
1.0
 10
419.163259933306
 20
363.1534992332939
 30
0.0
 10
419.2830756168946
 20
363.2822232679259
 30
0.0
 10
419.6238417308458
 20
363.648325498785
 30
0.0
 10
420.0494077670409
 20
363.9067682085771
 30
0.0
 10
420.3253418901694
 20
364.0743407036546
 30
0.0
  0
SPLINE
  5
12C
330
1F
100
AcDbEntity
  8
0
  6
Continuous
 62
     7
370
    15
100
AcDbSpline
210
0.0
220
0.0
230
1.0
 70
     8
 71
     3
 72
    10
 73
     6
 74
     0
 42
0.00000001
 43
0.00000001
 40
0.0
 40
0.0
 40
0.0
 40
0.0
 40
0.0550420057264288
 40
0.55497483870001
 40
1.0
 40
1.0
 40
1.0
 40
1.0
 10
424.883074848516
 20
366.3548200006965
 30
0.0
 10
424.9390864163657
 20
366.3764663260802
 30
0.0
 10
425.5038371085408
 20
366.5947208351539
 30
0.0
 10
426.6147051454802
 20
366.7219025044736
 30
0.0
 10
427.6244488745405
 20
366.7528102078199
 30
0.0
 10
428.0999846852536
 20
366.7673660989288
 30
0.0
  0
SPLINE
  5
12D
330
1F
100
AcDbEntity
  8
0
  6
Continuous
 62
     7
370
    15
100
AcDbSpline
210
0.0
220
0.0
230
1.0
 70
     8
 71
     3
 72
    14
 73
    10
 74
     0
 42
0.00000001
 43
0.00000001
 40
0.0
 40
0.0
 40
0.0
 40
0.0
 40
0.1082629945462282
 40
0.3413345533656756
 40
0.4494720176700853
 40
0.5572086285679385
 40
0.6774321508878506
 40
0.816531531132505
 40
1.0
 40
1.0
 40
1.0
 40
1.0
 10
424.2198108924312
 20
321.1489596019867
 30
0.0
 10
424.3643905814242
 20
321.1485670154174
 30
0.0
 10
424.8202254100748
 20
321.1473292576602
 30
0.0
 10
425.3353667472993
 20
321.1576779141042
 30
0.0
 10
425.9732268688824
 20
321.1591907291095
 30
0.0
 10
426.5016116933533
 20
321.1552379883241
 30
0.0
 10
427.0526792838619
 20
321.1500412689707
 30
0.0
 10
427.668265079583
 20
321.1468104811974
 30
0.0
 10
428.0610596318355
 20
321.1476271236735
 30
0.0
 10
428.2844712808254
 20
321.1480916093472
 30
0.0
  0
SPLINE
  5
12E
330
1F
100
AcDbEntity
  8
0
  6
Continuous
 62
     7
370
    15
100
AcDbSpline
210
0.0
220
0.0
230
1.0
 70
     8
 71
     3
 72
    10
 73
     6
 74
     0
 42
0.00000001
 43
0.00000001
 40
0.0
 40
0.0
 40
0.0
 40
0.0
 40
0.4450253453671903
 40
0.9449583712881877
 40
0.9999999999999999
 40
0.9999999999999999
 40
0.9999999999999999
 40
0.9999999999999999
 10
428.0999846852536
 20
321.1637108202461
 30
0.0
 10
427.6244484848571
 20
321.1782660513759
 30
0.0
 10
426.6147039431289
 20
321.2091723528829
 30
0.0
 10
425.5038410686045
 20
321.3363663759018
 30
0.0
 10
424.9390864415437
 20
321.5546091082185
 30
0.0
 10
424.883074848516
 20
321.5762541245106
 30
0.0
  0
SPLINE
  5
12F
330
1F
100
AcDbEntity
  8
0
  6
Continuous
 62
     7
370
    15
100
AcDbSpline
210
0.0
220
0.0
230
1.0
 70
     8
 71
     3
 72
     9
 73
     5
 74
     0
 42
0.00000001
 43
0.00000001
 40
0.0
 40
0.0
 40
0.0
 40
0.0
 40
0.6483934347923377
 40
1.0
 40
1.0
 40
1.0
 40
1.0
 10
420.3253418901694
 20
323.8567343528751
 30
0.0
 10
420.0494078393002
 20
324.024307587402
 30
0.0
 10
419.623842070027
 20
324.2827513432068
 30
0.0
 10
419.2830756454053
 20
324.6488536953349
 30
0.0
 10
419.163259933306
 20
324.777577685881
 30
0.0
  0
SPLINE
  5
130
330
1F
100
AcDbEntity
  8
0
  6
Continuous
 62
     7
370
    15
100
AcDbSpline
210
0.0
220
0.0
230
1.0
 70
     8
 71
     3
 72
    11
 73
     7
 74
     0
 42
0.00000001
 43
0.00000001
 40
0.0
 40
0.0
 40
0.0
 40
0.0
 40
0.2224166192134844
 40
0.5453982185538693
 40
0.9031126337492863
 40
1.0
 40
1.0
 40
1.0
 40
1.0
 10
390.1924176836145
 20
399.940949546862
 30
0.0
 10
390.1555847553474
 20
399.9172818223817
 30
0.0
 10
390.0652650052675
 20
399.8592450856736
 30
0.0
 10
389.9713740617139
 20
399.7066064578932
 30
0.0
 10
389.9152504023341
 20
399.5589319933016
 30
0.0
 10
389.925499340703
 20
399.4705386277283
 30
0.0
 10
389.9276836538446
 20
399.4516997213844
 30
0.0
  0
LINE
  5
131
330
1F
100
AcDbEntity
  8
0
  6
Continuous
 62
     7
370
    15
100
AcDbLine
 10
486.9354723716
 20
420.5565272446
 30
0.0
 11
390.4703951204
 21
400.0522388692
 31
0.0
  0
LINE
  5
132
330
1F
100
AcDbEntity
  8
0
  6
Continuous
 62
     7
370
    15
100
AcDbLine
 10
436.0567780906
 20
385.7857069548
 30
0.0
 11
436.0567780906
 21
403.5545854445
 31
0.0
  0
LINE
  5
133
330
1F
100
AcDbEntity
  8
0
  6
Continuous
 62
     7
370
    15
100
AcDbLine
 10
436.0567780906
 20
371.8316114123
 30
0.0
 11
436.0567780906
 21
381.9699368055
 31
0.0
  0
LINE
  5
134
330
1F
100
AcDbEntity
  8
0
  6
Continuous
 62
     7
370
    15
100
AcDbLine
 10
389.9187764847
 20
399.4576676364
 30
0.0
 11
389.9187764847
 21
379.4863267417
 31
0.0
  0
ARC
  5
135
330
1F
100
AcDbEntity
  8
0
  6
Continuous
 62
     7
370
    15
100
AcDbCircle
 10
412.9877782784
 20
366.7837880391
 30
0.0
 40
21.70979540437912
100
AcDbArc
 50
149.9116754226
 51
158.0248753354
  0
ARC
  5
136
330
1F
100
AcDbEntity
  8
0
  6
Continuous
 62
     7
370
    15
100
AcDbCircle
 10
412.9877782784
 20
366.7837880391
 30
0.0
 40
21.70979540437911
100
AcDbArc
 50
6.6325146151
 51
13.7037567859
  0
LINE
  5
137
330
1F
100
AcDbEntity
  8
0
  6
Continuous
 62
     7
370
    15
100
AcDbLine
 10
434.5522781597
 20
366.7837871786
 30
0.0
 11
434.5522781597
 21
369.291287529
 31
0.0
  0
SPLINE
  5
138
330
1F
100
AcDbEntity
  8
0
  6
Continuous
 62
     7
370
    15
100
AcDbSpline
210
0.0
220
0.0
230
1.0
 70
     8
 71
     3
 72
    17
 73
    13
 74
     0
 42
0.00000001
 43
0.00000001
 40
0.0
 40
0.0
 40
0.0
 40
0.0
 40
0.1240951123093423
 40
0.2192620819172644
 40
0.2901022497089236
 40
0.345661995025059
 40
0.4643326020883322
 40
0.5942665153533219
 40
0.7233982891519393
 40
0.853040554887112
 40
0.9529359940853779
 40
1.0
 40
1.0
 40
1.0
 40
1.0
 10
436.0848304578793
 20
322.9304437141303
 30
0.0
 10
436.2870742494969
 20
323.9804414170966
 30
0.0
 10
436.6444162429056
 20
325.835669057222
 30
0.0
 10
437.4094711269034
 20
328.2186083268357
 30
0.0
 10
438.1392105830852
 20
329.9828352548768
 30
0.0
 10
439.0907089150981
 20
331.8673433438359
 30
0.0
 10
440.52886113364
 20
334.0703849426251
 30
0.0
 10
442.781454772737
 20
336.4435712204076
 30
0.0
 10
445.5214453593164
 20
338.4009989539011
 30
0.0
 10
448.3216108245441
 20
339.7246174567701
 30
0.0
 10
450.5747698712654
 20
340.518820062991
 30
0.0
 10
451.8133825638828
 20
340.7800797526782
 30
0.0
 10
452.2100503319633
 20
340.8637486013952
 30
0.0
  0
SPLINE
  5
139
330
1F
100
AcDbEntity
  8
0
  6
Continuous
 62
     7
370
    15
100
AcDbSpline
210
0.0
220
0.0
230
1.0
 70
     8
 71
     3
 72
     9
 73
     5
 74
     0
 42
0.00000001
 43
0.00000001
 40
0.0
 40
0.0
 40
0.0
 40
0.0
 40
0.3290265104182066
 40
1.0
 40
1.0
 40
1.0
 40
1.0
 10
533.862566831125
 20
349.4655104901079
 30
0.0
 10
533.9853745727025
 20
349.8920344886196
 30
0.0
 10
534.358620307283
 20
351.1883555600418
 30
0.0
 10
534.3384834871713
 20
352.7170893562641
 30
0.0
 10
534.3249722147119
 20
353.7428292061571
 30
0.0
  0
LINE
  5
13A
330
1F
100
AcDbEntity
  8
0
  6
Continuous
 62
     7
370
    15
100
AcDbLine
 10
525.3902583146
 20
340.8548879984
 30
0.0
 11
525.3902583146
 21
341.7087878648
 31
0.0
  0
LINE
  5
13B
330
1F
100
AcDbEntity
  8
0
  6
Continuous
 62
     7
370
    15
100
AcDbLine
 10
501.3182594204
 20
341.7087878648
 30
0.0
 11
501.3182594204
 21
340.8548879984
 31
0.0
  0
LINE
  5
13C
330
1F
100
AcDbEntity
  8
0
  6
Continuous
 62
     7
370
    15
100
AcDbLine
 10
474.2372578704
 20
339.7027879569
 30
0.0
 11
474.2372578704
 21
341.7087878648
 31
0.0
  0
LINE
  5
13D
330
1F
100
AcDbEntity
  8
0
  6
Continuous
 62
     7
370
    15
100
AcDbLine
 10
452.1712588841
 20
340.9026597242
 30
0.0
 11
452.1712588841
 21
339.7027879569
 31
0.0
  0
LINE
  5
13E
330
1F
100
AcDbEntity
  8
0
  6
Continuous
 62
     7
370
    15
100
AcDbLine
 10
452.7730590427
 20
322.3007383372
 30
0.0
 11
453.7259082073
 21
321.3478882413
 31
0.0
  0
LINE
  5
13F
330
1F
100
AcDbEntity
  8
0
  6
Continuous
 62
     7
370
    15
100
AcDbLine
 10
472.6826085472
 20
321.3478882413
 30
0.0
 11
473.6354595745
 21
322.3007383372
 31
0.0
  0
LINE
  5
140
330
1F
100
AcDbEntity
  8
0
  6
Continuous
 62
     7
370
    15
100
AcDbLine
 10
473.6354595745
 20
322.3007383372
 30
0.0
 11
473.6354595745
 21
339.7027879569
 31
0.0
  0
LINE
  5
141
330
1F
100
AcDbEntity
  8
0
  6
Continuous
 62
     7
370
    15
100
AcDbLine
 10
452.7730590427
 20
339.7027879569
 30
0.0
 11
452.7730590427
 21
322.3007383372
 31
0.0
  0
ARC
  5
142
330
1F
100
AcDbEntity
  8
0
  6
Continuous
 62
     7
370
    15
100
AcDbCircle
 10
472.2814085672
 20
385.483276212
 30
0.0
 40
1.203600000000019
100
AcDbArc
 50
350.7972016979
 51
71.6852953135
  0
ARC
  5
143
330
1F
100
AcDbEntity
  8
0
  6
Continuous
 62
     7
370
    15
100
AcDbCircle
 10
454.1271085672
 20
385.483276212
 30
0.0
 40
1.203600000000019
100
AcDbArc
 50
108.3147046865
 51
189.2027983021
  0
LINE
  5
144
330
1F
100
AcDbEntity
  8
0
  6
Continuous
 62
     7
370
    15
100
AcDbLine
 10
452.9390002364
 20
385.2907835122
 30
0.0
 11
454.8612518931
 21
373.4261176165
 31
0.0
  0
LINE
  5
145
330
1F
100
AcDbEntity
  8
0
  6
Continuous
 62
     7
370
    15
100
AcDbLine
 10
471.5472629988
 20
373.4261176165
 30
0.0
 11
473.4695165181
 21
385.2907835122
 31
0.0
  0
ARC
  5
146
330
1F
100
AcDbEntity
  8
0
  6
Continuous
 62
     7
370
    15
100
AcDbCircle
 10
463.2042585672
 20
358.0601207984
 30
0.0
 40
30.09000000000002
100
AcDbArc
 50
71.6852953135
 51
108.3147046865
  0
ARC
  5
147
330
1F
100
AcDbEntity
  8
0
  6
Continuous
 62
     7
370
    15
100
AcDbCircle
 10
455.3562974053
 20
373.5063207984
 30
0.0
 40
0.5015000000000189
100
AcDbArc
 50
189.2027983021
 51
270.0
  0
ARC
  5
148
330
1F
100
AcDbEntity
  8
0
  6
Continuous
 62
     7
370
    15
100
AcDbCircle
 10
471.0522197292
 20
373.5063207984
 30
0.0
 40
0.5014999999999645
100
AcDbArc
 50
270.0
 51
350.7972016979
  0
SPLINE
  5
149
330
1F
100
AcDbEntity
  8
0
  6
Continuous
 62
     7
370
    15
100
AcDbSpline
210
0.0
220
0.0
230
1.0
 70
     8
 71
     3
 72
    35
 73
    31
 74
     0
 42
0.00000001
 43
0.00000001
 40
0.0
 40
0.0
 40
0.0
 40
0.0
 40
0.00244797945736
 40
0.0330453147213778
 40
0.0554452935703343
 40
0.0659261471164967
 40
0.0730849657633652
 40
0.0812502292705213
 40
0.094961394156178
 40
0.1263583739877347
 40
0.1585049890603724
 40
0.2790164706600475
 40
0.3885635552897812
 40
0.4967679458275255
 40
0.6624673512816548
 40
0.7351601126405038
 40
0.7865227984263568
 40
0.8237725732627743
 40
0.8689099928225178
 40
0.9383945033309806
 40
0.9812091368589421
 40
0.9915590582721489
 40
0.996605491135135
 40
0.9991209351510938
 40
0.9997487568174726
 40
0.9999056169138036
 40
0.9999841194013803
 40
0.9999939483528555
 40
0.9999987342766197
 40
1.0
 40
1.0
 40
1.0
 40
1.0
 10
436.0593233952058
 20
405.5106236215118
 30
0.0
 10
436.0584218768662
 20
405.5187409004355
 30
0.0
 10
436.0462522660595
 20
405.6283161813508
 30
0.0
 10
436.0702521855457
 20
405.8134247482733
 30
0.0
 10
436.1093600161548
 20
406.021992005714
 30
0.0
 10
436.1430299516456
 20
406.1380077670358
 30
0.0
 10
436.1601380742119
 20
406.1907956767494
 30
0.0
 10
436.1730770884315
 20
406.2280811379051
 30
0.0
 10
436.1912428323706
 20
406.2766106094634
 30
0.0
 10
436.1705598975444
 20
406.221905806939
 30
0.0
 10
436.1308995089777
 20
406.1119125100143
 30
0.0
 10
436.0478006761765
 20
405.8592970609556
 30
0.0
 10
435.9064008000173
 20
405.3031136323758
 30
0.0
 10
435.7587023433093
 20
404.5210438090174
 30
0.0
 10
435.604846356392
 20
403.7167081352907
 30
0.0
 10
435.4675385295906
 20
403.1749594213083
 30
0.0
 10
435.4051624600717
 20
403.0151537483038
 30
0.0
 10
435.4113603623624
 20
403.0383892300894
 30
0.0
 10
435.5295319806871
 20
403.2191394923784
 30
0.0
 10
435.8023647062173
 20
403.4556755059298
 30
0.0
 10
436.0971594755965
 20
403.5853947213074
 30
0.0
 10
436.2468746508819
 20
403.6281352491479
 30
0.0
 10
436.2936914100347
 20
403.6395732243739
 30
0.0
 10
436.3152604092615
 20
403.6443899849845
 30
0.0
 10
436.3239621600563
 20
403.6462775695029
 30
0.0
 10
436.3262476198832
 20
403.6467474239086
 30
0.0
 10
436.326891417959
 20
403.6469071673147
 30
0.0
 10
436.3271389122233
 20
403.6469457881047
 30
0.0
 10
436.3271808660448
 20
403.6469581703174
 30
0.0
 10
436.3271972184927
 20
403.6469578166995
 30
0.0
 10
436.327200638665
 20
403.6469577427391
 30
0.0
  0
SPLINE
  5
14A
330
1F
100
AcDbEntity
  8
0
  6
Continuous
 62
     7
370
    15
100
AcDbSpline
210
0.0
220
0.0
230
1.0
 70
     8
 71
     3
 72
    18
 73
    14
 74
     0
 42
0.00000001
 43
0.00000001
 40
0.0
 40
0.0
 40
0.0
 40
0.0
 40
0.1014719917622353
 40
0.2108259451159775
 40
0.3367217090459017
 40
0.4712983548998882
 40
0.5359618439303646
 40
0.5957313204297155
 40
0.6520776710082795
 40
0.7084468850737141
 40
0.831789742479043
 40
0.9065811621064829
 40
0.9999999999999999
 40
0.9999999999999999
 40
0.9999999999999999
 40
0.9999999999999999
 10
529.8356546783579
 20
342.167666795421
 30
0.0
 10
530.2302274171327
 20
342.593710398671
 30
0.0
 10
531.0500218167946
 20
343.4788910653347
 30
0.0
 10
532.2273976186033
 20
345.0186643040545
 30
0.0
 10
533.2444456462313
 20
346.8669887725824
 30
0.0
 10
533.837149023114
 20
348.6497623471725
 30
0.0
 10
534.1372798637033
 20
350.0997981996071
 30
0.0
 10
534.2759139601412
 20
351.0769625147416
 30
0.0
 10
534.3512600912436
 20
351.8816792115902
 30
0.0
 10
534.4021796579144
 20
352.7311662024414
 30
0.0
 10
534.4126139342982
 20
353.2351694392772
 30
0.0
 10
534.41700691355
 20
353.5580466110155
 30
0.0
 10
534.4171664849213
 20
353.6781070717438
 30
0.0
 10
534.4172551059854
 20
353.7447849835638
 30
0.0
  0
ARC
  5
14B
330
1F
100
AcDbEntity
  8
0
  6
Continuous
 62
     7
370
    15
100
AcDbCircle
 10
528.5360347553
 20
343.7147880465
 30
0.0
 40
2.006000109582616
100
AcDbArc
 50
269.8978606473
 51
316.1919294073
  0
ARC
  5
14C
330
1F
100
AcDbEntity
  8
0
  6
Continuous
 62
     7
370
    15
100
AcDbCircle
 10
487.0605946225
 20
419.9678774506
 30
0.0
 40
0.6017999999999659
100
AcDbArc
 50
12.0
 51
102.0
  0
LINE
  5
14D
330
1F
100
AcDbEntity
  8
0
  6
Continuous
 62
     7
370
    15
100
AcDbLine
 10
435.9693855742
 20
383.3770050283
 30
0.0
 11
436.121003958
 21
383.3757905837
 31
0.0
  0
LINE
  5
14E
330
1F
100
AcDbEntity
  8
0
  6
Continuous
 62
     7
370
    15
100
AcDbLine
 10
436.129056173
 20
384.3787579413
 30
0.0
 11
435.9692775408
 21
384.3800394412
 31
0.0
  0
LINE
  5
14F
330
1F
100
AcDbEntity
  8
0
  6
Continuous
 62
     7
370
    15
100
AcDbLine
 10
465.7117596591
 20
366.7837871786
 30
0.0
 11
465.7117596591
 21
373.0048208113
 31
0.0
  0
LINE
  5
150
330
1F
100
AcDbEntity
  8
0
  6
Continuous
 62
     7
370
    15
100
AcDbLine
 10
460.6967589581
 20
373.0048208113
 30
0.0
 11
460.6967589581
 21
366.7837871786
 31
0.0
  0
LINE
  5
151
330
1F
100
AcDbEntity
  8
0
  6
Continuous
 62
     7
370
    15
100
AcDbLine
 10
371.4252023721
 20
343.9655384596
 30
0.0
 11
371.4252023721
 21
308.8049578096
 31
0.0
  0
LINE
  5
152
330
1F
100
AcDbEntity
  8
0
  6
Continuous
 62
     7
370
    15
100
AcDbLine
 10
371.4252023721
 20
379.1261172469
 30
0.0
 11
371.4252023721
 21
343.9655384596
 31
0.0
  0
LINE
  5
153
330
1F
100
AcDbEntity
  8
0
  6
Continuous
 62
     7
370
     0
100
AcDbLine
 10
389.1359886849
 20
343.9655384596
 30
0.0
 11
389.1359886849
 21
378.7711976643
 31
0.0
  0
LINE
  5
154
330
1F
100
AcDbEntity
  8
0
  6
Continuous
 62
     7
370
     0
100
AcDbLine
 10
389.1359886849
 20
309.1598792549
 30
0.0
 11
389.1359886849
 21
343.9655384596
 31
0.0
  0
SPLINE
  5
155
330
1F
100
AcDbEntity
  8
0
  6
Continuous
 62
     7
370
    15
100
AcDbSpline
210
0.0
220
0.0
230
1.0
 70
     8
 71
     3
 72
    34
 73
    30
 74
     0
 42
0.00000001
 43
0.00000001
 40
0.0
 40
0.0
 40
0.0
 40
0.0
 40
0.0102436354286839
 40
0.0204882363148965
 40
0.0307731700808742
 40
0.041137357237977
 40
0.0516188027429777
 40
0.0622541783753209
 40
0.0927157460861401
 40
0.1246808247159629
 40
0.1551799782847837
 40
0.1872228984688102
 40
0.2496668338805079
 40
0.3134441107052886
 40
0.377684190459139
 40
0.4408749461224307
 40
0.5027365256519665
 40
0.5662850802371351
 40
0.6304752486815601
 40
0.6941267219931471
 40
0.7563617984168558
 40
0.8183780767708315
 40
0.8500594693940428
 40
0.8802067043053803
 40
0.9109406958167388
 40
0.9402519345270595
 40
0.9604662120675426
 40
0.9802908615995269
 40
1.0
 40
1.0
 40
1.0
 40
1.0
 10
401.9897914369638
 20
331.6067471824176
 30
0.0
 10
401.941092898706
 20
331.607591568716
 30
0.0
 10
401.8436912323774
 20
331.6092804208956
 30
0.0
 10
401.6980981873025
 20
331.6229511382365
 30
0.0
 10
401.5533386505756
 20
331.6447438720098
 30
0.0
 10
401.4095540443377
 20
331.6754280505573
 30
0.0
 10
401.2668705142819
 20
331.7147659566176
 30
0.0
 10
401.0385002188251
 20
331.7922701449468
 30
0.0
 10
400.7312146362453
 20
331.9359452870214
 30
0.0
 10
400.3805827482073
 20
332.170877298675
 30
0.0
 10
400.0652685116863
 20
332.4493448704591
 30
0.0
 10
399.7012922754313
 20
332.8571777470926
 30
0.0
 10
399.3329736852307
 20
333.4294789155319
 30
0.0
 10
399.0161025682199
 20
334.166182244914
 30
0.0
 10
398.8046281025285
 20
334.9332319049991
 30
0.0
 10
398.6859473262174
 20
335.7069168533818
 30
0.0
 10
398.650138051508
 20
336.483596548505
 30
0.0
 10
398.6945128676311
 20
337.2641280400772
 30
0.0
 10
398.824406740657
 20
338.0452286510939
 30
0.0
 10
399.0469612913066
 20
338.8053403194956
 30
0.0
 10
399.3722084040045
 20
339.5279487732971
 30
0.0
 10
399.7453117681035
 20
340.0868604053202
 30
0.0
 10
400.1146735082321
 20
340.4851484462237
 30
0.0
 10
400.4301409886649
 20
340.7521201129762
 30
0.0
 10
400.7758978524589
 20
340.9738857042386
 30
0.0
 10
401.1162139689863
 20
341.1269165167696
 30
0.0
 10
401.4288482998724
 20
341.2191296838756
 30
0.0
 10
401.707996481997
 20
341.2699625475928
 30
0.0
 10
401.8960429320911
 20
341.2762128671238
 30
0.0
 10
401.9897914369638
 20
341.2793288956939
 30
0.0
  0
SPLINE
  5
156
330
1F
100
AcDbEntity
  8
0
  6
Continuous
 62
     7
370
    15
100
AcDbSpline
210
0.0
220
0.0
230
1.0
 70
     8
 71
     3
 72
    22
 73
    18
 74
     0
 42
0.00000001
 43
0.00000001
 40
0.0
 40
0.0
 40
0.0
 40
0.0
 40
0.0419748895807833
 40
0.0838882729949297
 40
0.1257908881270457
 40
0.1902103340013105
 40
0.254040055547935
 40
0.3820284021383977
 40
0.507742613196922
 40
0.632960806920245
 40
0.6967652307076005
 40
0.7579203677365808
 40
0.8198708122221307
 40
0.8792962455090795
 40
0.9200761609852454
 40
0.9601245962717846
 40
1.0
 40
1.0
 40
1.0
 40
1.0
 10
398.6632167721851
 20
328.9205380390558
 30
0.0
 10
398.6640803463856
 20
328.920537809673
 30
0.0
 10
398.6658062293839
 20
328.9205373512434
 30
0.0
 10
398.6798223654327
 20
328.9205070948224
 30
0.0
 10
398.7062925100932
 20
328.9204651493615
 30
0.0
 10
398.7526126868274
 20
328.9204970310371
 30
0.0
 10
398.8521581750083
 20
328.920521031193
 30
0.0
 10
399.0337792440933
 20
328.9206118456213
 30
0.0
 10
399.3565285969358
 20
328.9205276098319
 30
0.0
 10
399.729017187236
 20
328.9205102290921
 30
0.0
 10
400.0991318538217
 20
328.9206050900896
 30
0.0
 10
400.4157343169383
 20
328.9204855647448
 30
0.0
 10
400.7641690805658
 20
328.9205603832013
 30
0.0
 10
401.1071905904134
 20
328.9205418392683
 30
0.0
 10
401.4229818162453
 20
328.920644985989
 30
0.0
 10
401.7048544638378
 20
328.9205957455029
 30
0.0
 10
401.8949496284486
 20
328.9205572467554
 30
0.0
 10
401.9897914369638
 20
328.9205380390558
 30
0.0
  0
SPLINE
  5
157
330
1F
100
AcDbEntity
  8
0
  6
Continuous
 62
     7
370
    15
100
AcDbSpline
210
0.0
220
0.0
230
1.0
 70
    24
 71
     3
 72
    14
 73
    10
 74
     0
 42
0.00000001
 43
0.00000001
 40
0.0
 40
0.0
 40
0.0
 40
0.0
 40
0.0623245799387762
 40
0.1246130392362739
 40
0.2493538008298658
 40
0.3745207430912451
 40
0.4997075661329526
 40
0.7558599831213283
 40
1.0
 40
1.0
 40
1.0
 40
1.0
 10
401.9897917980087
 20
359.0105386997942
 30
0.0
 10
401.8417600652454
 20
359.0105386997942
 30
0.0
 10
401.5457823925332
 20
359.0105386997942
 30
0.0
 10
400.9796554945245
 20
359.0105386997942
 30
0.0
 10
400.3528392284352
 20
359.0105386997942
 30
0.0
 10
399.7714293964029
 20
359.0105386997942
 30
0.0
 10
399.1864277356253
 20
359.0105386997942
 30
0.0
 10
398.750779351278
 20
359.0105386997942
 30
0.0
 10
398.6947089809732
 20
359.0105386997942
 30
0.0
 10
398.6673469418419
 20
359.0105386997942
 30
0.0
  0
SPLINE
  5
158
330
1F
100
AcDbEntity
  8
0
  6
Continuous
 62
     7
370
    15
100
AcDbSpline
210
0.0
220
0.0
230
1.0
 70
     8
 71
     3
 72
    34
 73
    30
 74
     0
 42
0.00000001
 43
0.00000001
 40
0.0
 40
0.0
 40
0.0
 40
0.0
 40
0.0101839707203908
 40
0.0203577798393033
 40
0.030559766442838
 40
0.0408276875246766
 40
0.0511981211690855
 40
0.0617059345963792
 40
0.0920327062721182
 40
0.123663596177128
 40
0.1545024458572553
 40
0.1866689656638954
 40
0.2497014961248271
 40
0.3121197613878363
 40
0.3756237360393671
 40
0.439344612214389
 40
0.5020370603776141
 40
0.564600155062414
 40
0.6284029109821698
 40
0.6921178686082371
 40
0.7547244549902873
 40
0.8171270414315404
 40
0.8489138342596426
 40
0.8793842041990603
 40
0.9102454410581282
 40
0.9398535167124867
 40
0.9601720033452317
 40
0.9801286608725689
 40
0.9999999999999999
 40
0.9999999999999999
 40
0.9999999999999999
 40
0.9999999999999999
 10
401.9897914369638
 20
346.6517471824176
 30
0.0
 10
401.941376625247
 20
346.6525753912625
 30
0.0
 10
401.8445953102814
 20
346.6542309825626
 30
0.0
 10
401.7000012634336
 20
346.6676721457341
 30
0.0
 10
401.5563833033805
 20
346.6891226600324
 30
0.0
 10
401.4138814466494
 20
346.7193216290041
 30
0.0
 10
401.2726198464902
 20
346.7580026889073
 30
0.0
 10
401.0456639553443
 20
346.8344481657828
 30
0.0
 10
400.7403726066882
 20
346.9760094927304
 30
0.0
 10
400.3890641907792
 20
347.2093423764268
 30
0.0
 10
400.0720700845146
 20
347.4871212735609
 30
0.0
 10
399.7041665817652
 20
347.8979240145862
 30
0.0
 10
399.3371417169639
 20
348.4677608124007
 30
0.0
 10
399.021228560332
 20
349.1980291529508
 30
0.0
 10
398.8086096120944
 20
349.9583500797194
 30
0.0
 10
398.6875760397073
 20
350.7343030092831
 30
0.0
 10
398.649935880024
 20
351.5124831910778
 30
0.0
 10
398.6927075585377
 20
352.2909218900986
 30
0.0
 10
398.8192879961156
 20
353.0668422941371
 30
0.0
 10
399.0387026677347
 20
353.8277379541315
 30
0.0
 10
399.3620019503773
 20
354.5547175554537
 30
0.0
 10
399.7345140146693
 20
355.1180644688837
 30
0.0
 10
400.1043290405511
 20
355.520237012429
 30
0.0
 10
400.4204071642203
 20
355.7900853573526
 30
0.0
 10
400.7680541507747
 20
356.0147477863099
 30
0.0
 10
401.1100912588339
 20
356.1697199393172
 30
0.0
 10
401.4248857122136
 20
356.2631693867286
 30
0.0
 10
401.7058207061032
 20
356.3147781529634
 30
0.0
 10
401.895269804164
 20
356.32114986455
 30
0.0
 10
401.9897914369638
 20
356.3243288956939
 30
0.0
  0
LINE
  5
159
330
1F
100
AcDbEntity
  8
0
  6
Continuous
 62
     7
370
    15
100
AcDbLine
 10
415.0602587262
 20
329.4220381963
 30
0.0
 11
415.0602587262
 21
358.5090382572
 31
0.0
  0
SPLINE
  5
15A
330
1F
100
AcDbEntity
  8
0
  6
Continuous
 62
     7
370
    15
100
AcDbSpline
210
0.0
220
0.0
230
1.0
 70
    24
 71
     3
 72
    14
 73
    10
 74
     0
 42
0.00000001
 43
0.00000001
 40
0.0
 40
0.0
 40
0.0
 40
0.0
 40
0.0062519157568483
 40
0.2617698316739829
 40
0.5133748596008028
 40
0.6375680256239136
 40
0.7611629641658988
 40
0.8810326000598673
 40
1.0
 40
1.0
 40
1.0
 40
1.0
 10
414.4021889889372
 20
359.0105386997942
 30
0.0
 10
414.4035145688505
 20
359.0105386997942
 30
0.0
 10
414.4590170490963
 20
359.0105386997942
 30
0.0
 10
414.2669004186712
 20
359.0105386997942
 30
0.0
 10
413.8513675342737
 20
359.0105386997942
 30
0.0
 10
413.2522860439742
 20
359.0105386997942
 30
0.0
 10
412.6685915682845
 20
359.0105386997942
 30
0.0
 10
411.9334287362747
 20
359.0105386997942
 30
0.0
 10
411.3635756865676
 20
359.0105386997942
 30
0.0
 10
411.0797255063188
 20
359.0105386997942
 30
0.0
  0
SPLINE
  5
15B
330
1F
100
AcDbEntity
  8
0
  6
Continuous
 62
     7
370
    15
100
AcDbSpline
210
0.0
220
0.0
230
1.0
 70
     8
 71
     3
 72
    24
 73
    20
 74
     0
 42
0.00000001
 43
0.00000001
 40
0.0
 40
0.0
 40
0.0
 40
0.0
 40
0.020272208235381
 40
0.0405292034007037
 40
0.0608467835272112
 40
0.0812995356600815
 40
0.1019596686968321
 40
0.1228959757414188
 40
0.1834686160021983
 40
0.2465832355189099
 40
0.3072887160243855
 40
0.3706308374856686
 40
0.4940972471710656
 40
0.6203986198865645
 40
0.7485514964866062
 40
0.812060048567556
 40
0.8761428608827875
 40
0.9380859446732054
 40
0.9999999999999999
 40
0.9999999999999999
 40
0.9999999999999999
 40
0.9999999999999999
 10
411.0797257419284
 20
328.9205380390558
 30
0.0
 10
411.1279178777821
 20
328.9205418142662
 30
0.0
 10
411.224265984197
 20
328.9205493618542
 30
0.0
 10
411.3682342957762
 20
328.9205783393256
 30
0.0
 10
411.5112729848774
 20
328.9205883725745
 30
0.0
 10
411.6532440866368
 20
328.9205764760254
 30
0.0
 10
411.7940247776826
 20
328.9205487205924
 30
0.0
 10
412.0206108406728
 20
328.9205194713107
 30
0.0
 10
412.3255895737945
 20
328.9206393976954
 30
0.0
 10
412.675042406638
 20
328.9205414929571
 30
0.0
 10
412.9891583685053
 20
328.9205523933951
 30
0.0
 10
413.3523287002485
 20
328.9204820881333
 30
0.0
 10
413.7207898742171
 20
328.9206609535864
 30
0.0
 10
414.0406451366994
 20
328.9206456202961
 30
0.0
 10
414.2205822038886
 20
328.9203757331117
 30
0.0
 10
414.3189164198437
 20
328.920343700846
 30
0.0
 10
414.369503450658
 20
328.9203471206063
 30
0.0
 10
414.4006165291396
 20
328.9205045107532
 30
0.0
 10
414.404406076869
 20
328.9205268647013
 30
0.0
 10
414.4063004066545
 20
328.9205380390559
 30
0.0
  0
SPLINE
  5
15C
330
1F
100
AcDbEntity
  8
0
  6
Continuous
 62
     7
370
    15
100
AcDbSpline
210
0.0
220
0.0
230
1.0
 70
     8
 71
     3
 72
    34
 73
    30
 74
     0
 42
0.00000001
 43
0.00000001
 40
0.0
 40
0.0
 40
0.0
 40
0.0
 40
0.0102436354287364
 40
0.0204882363149864
 40
0.0307731700809941
 40
0.0411373572381271
 40
0.051618802743166
 40
0.0622541783755628
 40
0.0927157460883266
 40
0.124680824715997
 40
0.1551799782820664
 40
0.1872228984685582
 40
0.2496668338801906
 40
0.31344411070483
 40
0.3776841904584269
 40
0.4408749461213853
 40
0.5027365256508323
 40
0.5662850802358684
 40
0.6304752486800598
 40
0.6941267219913978
 40
0.7563617984149172
 40
0.8183780767687607
 40
0.8500594693849575
 40
0.8802067043032327
 40
0.9109406958120181
 40
0.9402519345259119
 40
0.9604662120700538
 40
0.9802908616023701
 40
1.0
 40
1.0
 40
1.0
 40
1.0
 10
411.0797257419284
 20
341.2793288956939
 30
0.0
 10
411.1284242801859
 20
341.2784877181
 30
0.0
 10
411.225825946514
 20
341.2768052836316
 30
0.0
 10
411.3714189915878
 20
341.2631597894425
 30
0.0
 10
411.516178528313
 20
341.2413762453547
 30
0.0
 10
411.6599631345487
 20
341.2106822760863
 30
0.0
 10
411.802646664602
 20
341.171320833053
 30
0.0
 10
412.0310169600609
 20
341.0937897300979
 30
0.0
 10
412.3383025426328
 20
340.9502305298604
 30
0.0
 10
412.688934430654
 20
340.7151815574827
 30
0.0
 10
413.004248667151
 20
340.4367443402065
 30
0.0
 10
413.3682249034164
 20
340.028860112484
 30
0.0
 10
413.7365434936103
 20
339.456744318049
 30
0.0
 10
414.0534146106203
 20
338.7199088758173
 30
0.0
 10
414.2648890763098
 20
337.952639429762
 30
0.0
 10
414.3835698526211
 20
337.179190208225
 30
0.0
 10
414.4193791273316
 20
336.4024088634137
 30
0.0
 10
414.3750043112102
 20
335.6217894415526
 30
0.0
 10
414.2451104381872
 20
334.8408512736398
 30
0.0
 10
414.0225558875425
 20
334.0808150979214
 30
0.0
 10
413.6973087748513
 20
333.3581144039749
 30
0.0
 10
413.3242054107802
 20
332.799189225717
 30
0.0
 10
412.954843670664
 20
332.4009953409118
 30
0.0
 10
412.6393761902539
 20
332.1339011562353
 30
0.0
 10
412.2936193264511
 20
331.91220559648
 30
0.0
 10
411.9533032099046
 20
331.7591708216024
 30
0.0
 10
411.6406688789924
 20
331.667043926792
 30
0.0
 10
411.3615206968674
 20
331.616162027839
 30
0.0
 10
411.1734742467867
 20
331.6098793452412
 30
0.0
 10
411.0797257419284
 20
331.6067471824176
 30
0.0
  0
SPLINE
  5
15D
330
1F
100
AcDbEntity
  8
0
  6
Continuous
 62
     7
370
    15
100
AcDbSpline
210
0.0
220
0.0
230
1.0
 70
     8
 71
     3
 72
    34
 73
    30
 74
     0
 42
0.00000001
 43
0.00000001
 40
0.0
 40
0.0
 40
0.0
 40
0.0
 40
0.0101839707187691
 40
0.020357779836687
 40
0.0305597664398738
 40
0.0408276875220182
 40
0.0511981211673895
 40
0.0617059345962913
 40
0.0920327062664203
 40
0.1236635961767598
 40
0.1545024458512609
 40
0.1866689656632595
 40
0.2497014961240246
 40
0.3121197613865931
 40
0.3756237360374922
 40
0.4393446122119184
 40
0.5020370603746828
 40
0.5646001550593487
 40
0.6284029109788555
 40
0.6921178686046612
 40
0.7547244549865446
 40
0.8171270414276188
 40
0.8489138342582659
 40
0.8793842041951703
 40
0.9102454410601226
 40
0.9398535167104923
 40
0.9601720033435407
 40
0.9801286608716204
 40
0.9999999999999999
 40
0.9999999999999999
 40
0.9999999999999999
 40
0.9999999999999999
 10
411.0797257419284
 20
356.324328895694
 30
0.0
 10
411.1281405536369
 20
356.3234964180741
 30
0.0
 10
411.2249218685891
 20
356.3218322934832
 30
0.0
 10
411.3695159154212
 20
356.3083569005643
 30
0.0
 10
411.5131338754673
 20
356.2868918828196
 30
0.0
 10
411.6556357322002
 20
356.2567033043864
 30
0.0
 10
411.7968973323697
 20
356.2180534704621
 30
0.0
 10
412.0238532235007
 20
356.1416568348857
 30
0.0
 10
412.3291445721512
 20
356.0000214624758
 30
0.0
 10
412.6804529880404
 20
355.7667558874999
 30
0.0
 10
412.9974470943268
 20
355.488866309332
 30
0.0
 10
413.3653505970623
 20
355.078198712894
 30
0.0
 10
413.7323754618765
 20
354.5083245912305
 30
0.0
 10
414.0482886185034
 20
353.7780052259781
 30
0.0
 10
414.2609075667406
 20
353.0177327642905
 30
0.0
 10
414.381941139129
 20
352.2418522433995
 30
0.0
 10
414.4195812988154
 20
351.4635535203278
 30
0.0
 10
414.3768096203062
 20
350.6852363849306
 30
0.0
 10
414.2502291827341
 20
349.9092552783692
 30
0.0
 10
414.0308145111228
 20
349.1482708894266
 30
0.0
 10
413.7075152284927
 20
348.421367589685
 30
0.0
 10
413.335003164204
 20
347.858038663465
 30
0.0
 10
412.9651881383425
 20
347.455772945975
 30
0.0
 10
412.6491100146568
 20
347.1860439588603
 30
0.0
 10
412.3014630281146
 20
346.9613066035389
 30
0.0
 10
411.9594259200554
 20
346.8063512113694
 30
0.0
 10
411.6446314666898
 20
346.7128002605253
 30
0.0
 10
411.3636964727975
 20
346.6612407656289
 30
0.0
 10
411.1742473747313
 20
346.6549071876179
 30
0.0
 10
411.0797257419284
 20
346.6517471824176
 30
0.0
  0
LINE
  5
15E
330
1F
100
AcDbEntity
  8
0
  6
Continuous
 62
     7
370
    15
100
AcDbLine
 10
398.0092576468
 20
343.9655384596
 30
0.0
 11
398.0092576468
 21
328.6389048758
 31
0.0
  0
LINE
  5
15F
330
1F
100
AcDbEntity
  8
0
  6
Continuous
 62
     7
370
    15
100
AcDbLine
 10
398.0092576468
 20
359.2921706464
 30
0.0
 11
398.0092576468
 21
343.9655384596
 31
0.0
  0
LINE
  5
160
330
1F
100
AcDbEntity
  8
0
  6
Continuous
 62
     7
370
    15
100
AcDbLine
 10
401.989791798
 20
341.2793289486
 30
0.0
 11
411.0797255063
 21
341.2793289486
 31
0.0
  0
LINE
  5
161
330
1F
100
AcDbEntity
  8
0
  6
Continuous
 62
     7
370
    15
100
AcDbLine
 10
411.0797255063
 20
346.6517475049
 30
0.0
 11
401.989791798
 21
346.6517475049
 31
0.0
  0
LINE
  5
162
330
1F
100
AcDbEntity
  8
0
  6
Continuous
 62
     7
370
    15
100
AcDbLine
 10
401.989791798
 20
356.3243287231
 30
0.0
 11
411.0797255063
 21
356.3243287231
 31
0.0
  0
LINE
  5
163
330
1F
100
AcDbEntity
  8
0
  6
Continuous
 62
     7
370
    15
100
AcDbLine
 10
411.0797255063
 20
331.6067472647
 30
0.0
 11
401.989791798
 21
331.6067472647
 31
0.0
  0
SPLINE
  5
164
330
1F
100
AcDbEntity
  8
0
  6
Continuous
 62
     7
370
    15
100
AcDbSpline
210
0.0
220
0.0
230
1.0
 70
     8
 71
     3
 72
    10
 73
     6
 74
     0
 42
0.00000001
 43
0.00000001
 40
0.0
 40
0.0
 40
0.0
 40
0.0
 40
0.4764362145141182
 40
0.9648577844859544
 40
1.0
 40
1.0
 40
1.0
 40
1.0
 10
416.0979541713131
 20
358.5985066916231
 30
0.0
 10
416.6694266003153
 20
359.7135715815077
 30
0.0
 10
417.8267475699317
 20
361.9717522286472
 30
0.0
 10
419.7136330243625
 20
364.0045752344784
 30
0.0
 10
420.9627381133766
 20
364.5972254474656
 30
0.0
 10
421.0465795123708
 20
364.637004825044
 30
0.0
  0
SPLINE
  5
165
330
1F
100
AcDbEntity
  8
0
  6
Continuous
 62
     7
370
    15
100
AcDbSpline
210
0.0
220
0.0
230
1.0
 70
     8
 71
     3
 72
     9
 73
     5
 74
     0
 42
0.00000001
 43
0.00000001
 40
0.0
 40
0.0
 40
0.0
 40
0.0
 40
0.5000536218433972
 40
1.0
 40
1.0
 40
1.0
 40
1.0
 10
428.099251695765
 20
366.7833602973475
 30
0.0
 10
428.0992497229672
 20
366.7837418763302
 30
0.0
 10
428.0992457777946
 20
366.7845049524606
 30
0.0
 10
428.0992589696401
 20
366.7839636248091
 30
0.0
 10
428.0992655648555
 20
366.7836929900104
 30
0.0
  0
SPLINE
  5
166
330
1F
100
AcDbEntity
  8
0
  6
Continuous
 62
     7
370
    15
100
AcDbSpline
210
0.0
220
0.0
230
1.0
 70
     8
 71
     3
 72
    10
 73
     6
 74
     0
 42
0.00000001
 43
0.00000001
 40
0.0
 40
0.0
 40
0.0
 40
0.0
 40
0.4764361600936677
 40
0.9648578874218491
 40
1.0
 40
1.0
 40
1.0
 40
1.0
 10
416.0979541713131
 20
329.3325697618905
 30
0.0
 10
416.66942719542
 20
328.2175060754493
 30
0.0
 10
417.8267496258795
 20
325.9593273666188
 30
0.0
 10
419.7136291080482
 20
323.9264933556279
 30
0.0
 10
420.9627381053454
 20
323.3338508347537
 30
0.0
 10
421.0465795123708
 20
323.2940720941309
 30
0.0
  0
LINE
  5
167
330
1F
100
AcDbEntity
  8
0
  6
Continuous
 62
     7
370
    15
100
AcDbLine
 10
436.12325869
 20
353.3127165015
 30
0.0
 11
436.12325869
 21
334.618359952
 31
0.0
  0
LINE
  5
168
330
1F
100
AcDbEntity
  8
0
  6
Continuous
 62
     7
370
    15
100
AcDbLine
 10
434.2175584981
 20
366.7837871786
 30
0.0
 11
428.0992655651
 21
366.7837871786
 31
0.0
  0
LINE
  5
169
330
1F
100
AcDbEntity
  8
0
  6
Continuous
 62
     7
370
    15
100
AcDbLine
 10
434.2175584981
 20
321.147287878
 30
0.0
 11
428.0992655651
 21
321.147287878
 31
0.0
  0
LINE
  5
16A
330
1F
100
AcDbEntity
  8
0
  6
Continuous
 62
     7
370
    15
100
AcDbLine
 10
436.12325869
 20
334.618359952
 30
0.0
 11
436.12325869
 21
323.0529880698
 31
0.0
  0
ARC
  5
16B
330
1F
100
AcDbEntity
  8
0
  6
Continuous
 62
     7
370
    15
100
AcDbCircle
 10
434.2175585672
 20
323.0529880391
 30
0.0
 40
1.905700000000024
100
AcDbArc
 50
270.0
 51
0.0
  0
LINE
  5
16C
330
1F
100
AcDbEntity
  8
0
  6
Continuous
 62
     7
370
    15
100
AcDbLine
 10
436.12325869
 20
364.8780888494
 30
0.0
 11
436.12325869
 21
353.3127165015
 31
0.0
  0
ARC
  5
16D
330
1F
100
AcDbEntity
  8
0
  6
Continuous
 62
     7
370
    15
100
AcDbCircle
 10
434.2175585672
 20
364.8780880391
 30
0.0
 40
1.905700000000024
100
AcDbArc
 50
0.0
 51
90.0
  0
SPLINE
  5
16E
330
1F
100
AcDbEntity
  8
0
  6
Continuous
 62
     7
370
    15
100
AcDbSpline
210
0.0
220
0.0
230
1.0
 70
     8
 71
     3
 72
     8
 73
     4
 74
     0
 42
0.00000001
 43
0.00000001
 40
0.0
 40
0.0
 40
0.0
 40
0.0
 40
1.0
 40
1.0
 40
1.0
 40
1.0
 10
416.0632585672244
 20
329.5157906332374
 30
0.0
 10
416.0632585672244
 20
329.453546300079
 30
0.0
 10
416.0752527609098
 20
329.3902517261494
 30
0.0
 10
416.0980254025775
 20
329.3323225245614
 30
0.0
  0
SPLINE
  5
16F
330
1F
100
AcDbEntity
  8
0
  6
Continuous
 62
     7
370
    15
100
AcDbSpline
210
0.0
220
0.0
230
1.0
 70
    24
 71
     3
 72
    29
 73
    25
 74
     0
 42
0.00000001
 43
0.00000001
 40
0.0
 40
0.0
 40
0.0
 40
0.0
 40
0.0158897261655059
 40
0.0317431435607591
 40
0.0475696750594288
 40
0.0633787916105054
 40
0.0791799954776029
 40
0.0949828031980849
 40
0.1107967284138039
 40
0.1266312647279209
 40
0.1893566564490736
 40
0.2520766836701074
 40
0.3149649803322186
 40
0.3777992035872044
 40
0.5024762353820039
 40
0.627999089481235
 40
0.6898940312160514
 40
0.7521578848362125
 40
0.8140702298234754
 40
0.8765723812481102
 40
0.9073826138475595
 40
0.9381812389753035
 40
0.9690324216015331
 40
1.0
 40
1.0
 40
1.0
 40
1.0
 10
416.0632585672244
 20
329.515800798935
 30
0.0
 10
416.0632585672244
 20
329.5175382347956
 30
0.0
 10
416.0632585672244
 20
329.5210091363941
 30
0.0
 10
416.0632585672244
 20
329.537208923329
 30
0.0
 10
416.0632585672244
 20
329.5614593190083
 30
0.0
 10
416.0632585672244
 20
329.5945444070599
 30
0.0
 10
416.0632585672244
 20
329.6362551981508
 30
0.0
 10
416.0632585672244
 20
329.6866452668618
 30
0.0
 10
416.0632585672244
 20
329.7457088182938
 30
0.0
 10
416.0632585672244
 20
329.8801916622664
 30
0.0
 10
416.0632585672244
 20
330.1450877450991
 30
0.0
 10
416.0632585672244
 20
330.6319302669154
 30
0.0
 10
416.0632585672244
 20
331.2470078048116
 30
0.0
 10
416.0632585672244
 20
332.2289221085082
 30
0.0
 10
416.0632585672244
 20
333.7476774123735
 30
0.0
 10
416.0632585672244
 20
335.5936446871667
 30
0.0
 10
416.0632585672244
 20
337.2213698872856
 30
0.0
 10
416.0632585672244
 20
338.4982495668989
 30
0.0
 10
416.0632585672244
 20
339.8285391209883
 30
0.0
 10
416.0632585672244
 20
340.9653348977682
 30
0.0
 10
416.0632585672244
 20
341.8853914872128
 30
0.0
 10
416.0632585672244
 20
342.57519153868
 30
0.0
 10
416.0632585672244
 20
343.2690193258732
 30
0.0
 10
416.0632585672244
 20
343.7330738866197
 30
0.0
 10
416.0632585672244
 20
343.9655380407517
 30
0.0
  0
SPLINE
  5
170
330
1F
100
AcDbEntity
  8
0
  6
Continuous
 62
     7
370
    15
100
AcDbSpline
210
0.0
220
0.0
230
1.0
 70
    24
 71
     3
 72
    26
 73
    22
 74
     0
 42
0.00000001
 43
0.00000001
 40
0.0
 40
0.0
 40
0.0
 40
0.0
 40
0.1250000000000001
 40
0.1250000000000001
 40
0.1875000000000002
 40
0.1875000000000002
 40
0.2500000000000004
 40
0.2500000000000004
 40
0.3749999999999999
 40
0.3749999999999999
 40
0.4999999999999994
 40
0.4999999999999994
 40
0.6249999999999989
 40
0.6249999999999989
 40
0.6874999999999986
 40
0.6874999999999986
 40
0.7499999999999981
 40
0.7499999999999981
 40
0.874999999999999
 40
0.874999999999999
 40
1.0
 40
1.0
 40
1.0
 40
1.0
 10
416.0632585672245
 20
343.9655380373599
 30
0.0
 10
416.0632585672245
 20
344.8986468374799
 30
0.0
 10
416.0632585672244
 20
345.8190496920856
 30
0.0
 10
416.0632585672244
 20
347.1869090674562
 30
0.0
 10
416.0632585672244
 20
347.6406602323106
 30
0.0
 10
416.0632585672244
 20
348.5438242074995
 30
0.0
 10
416.0632585672249
 20
348.9889562373215
 30
0.0
 10
416.0632585672249
 20
350.2912298856593
 30
0.0
 10
416.0632585672244
 20
351.1215341371694
 30
0.0
 10
416.0632585672245
 20
352.7003278137167
 30
0.0
 10
416.0632585672244
 20
353.4504190092835
 30
0.0
 10
416.0632585672244
 20
354.7933928177249
 30
0.0
 10
416.0632585672244
 20
355.3947280466884
 30
0.0
 10
416.0632585672244
 20
356.1906467324674
 30
0.0
 10
416.0632585672244
 20
356.4393654863594
 30
0.0
 10
416.0632585672244
 20
356.8916412096349
 30
0.0
 10
416.0632585672244
 20
357.0957388657527
 30
0.0
 10
416.0632585672244
 20
357.6438347973955
 30
0.0
 10
416.0632585672244
 20
357.9242362671865
 30
0.0
 10
416.0632585672244
 20
358.3083633824684
 30
0.0
 10
416.0632585672244
 20
358.4081144487212
 30
0.0
 10
416.0632585672244
 20
358.4152752791773
 30
0.0
  0
SPLINE
  5
171
330
1F
100
AcDbEntity
  8
0
  6
Continuous
 62
     7
370
    15
100
AcDbSpline
210
0.0
220
0.0
230
1.0
 70
     8
 71
     3
 72
     8
 73
     4
 74
     0
 42
0.00000001
 43
0.00000001
 40
0.0
 40
0.0
 40
0.0
 40
0.0
 40
1.0
 40
1.0
 40
1.0
 40
1.0
 10
416.098047723351
 20
358.5987448161819
 30
0.0
 10
416.0753273729946
 20
358.5407941163967
 30
0.0
 10
416.0632674213971
 20
358.4775317380826
 30
0.0
 10
416.0632585722922
 20
358.4152854449109
 30
0.0
  0
LINE
  5
172
330
1F
100
AcDbEntity
  8
0
  6
Continuous
 62
     7
370
    15
100
AcDbLine
 10
411.0797255063
 20
359.0105386998
 30
0.0
 11
401.989791798
 21
359.0105386998
 31
0.0
  0
LINE
  5
173
330
1F
100
AcDbEntity
  8
0
  6
Continuous
 62
     7
370
    15
100
AcDbLine
 10
401.989791798
 20
328.9205382194
 30
0.0
 11
411.0797255063
 21
328.9205382194
 31
0.0
  0
LWPOLYLINE
  5
174
330
1F
100
AcDbEntity
  8
0
  6
Continuous
 62
     7
370
    15
100
AcDbPolyline
 90
        6
 70
   128
 43
0.0
 10
416.1461836422
 20
329.2484359431
 10
416.159530426
 20
329.1958232026
 10
416.2015852282
 20
329.0778013493
 10
416.2207751298
 20
329.0306112345
 10
416.2207974815
 20
329.0305576834
 10
416.2207974815
 20
329.0305576834
  0
LWPOLYLINE
  5
175
330
1F
100
AcDbEntity
  8
0
  6
Continuous
 62
     7
370
    15
100
AcDbPolyline
 90
        6
 70
   128
 43
0.0
 10
416.1461836422
 20
358.6826405104
 10
416.159530426
 20
358.7352527853
 10
416.2015852282
 20
358.8532755698
 10
416.2207751298
 20
358.9004656847
 10
416.2207974815
 20
358.9005178388
 10
416.2207974815
 20
358.9005178388
  0
SPLINE
  5
176
330
1F
100
AcDbEntity
  8
0
  6
Continuous
 62
     7
370
    15
100
AcDbSpline
210
0.0
220
0.0
230
1.0
 70
    24
 71
     3
 72
     8
 73
     4
 74
     0
 42
0.00000001
 43
0.00000001
 40
0.0
 40
0.0
 40
0.0
 40
0.0
 40
1.0
 40
1.0
 40
1.0
 40
1.0
 10
428.0992370733791
 20
366.7838237009269
 30
0.0
 10
428.0983158321849
 20
366.7853521935536
 30
0.0
 10
428.1001978581133
 20
366.7822295990285
 30
0.0
 10
428.0992464994459
 20
366.7838080615064
 30
0.0
  0
SPLINE
  5
177
330
1F
100
AcDbEntity
  8
0
  6
Continuous
 62
     7
370
    15
100
AcDbSpline
210
0.0
220
0.0
230
1.0
 70
     8
 71
     3
 72
    10
 73
     6
 74
     0
 42
0.00000001
 43
0.00000001
 40
0.0
 40
0.0
 40
0.0
 40
0.0
 40
0.5
 40
0.5
 40
1.0
 40
1.0
 40
1.0
 40
1.0
 10
413.0543417667412
 20
366.7836499971969
 30
0.0
 10
415.5613432830539
 20
366.7844770646805
 30
0.0
 10
418.0689932348505
 20
366.7842282696666
 30
0.0
 10
423.0845051093292
 20
366.7833789846311
 30
0.0
 10
425.5910126191865
 20
366.7850256911223
 30
0.0
 10
428.0992370733791
 20
366.7838237009268
 30
0.0
  0
SPLINE
  5
178
330
1F
100
AcDbEntity
  8
0
  6
Continuous
 62
     7
370
    15
100
AcDbSpline
210
0.0
220
0.0
230
1.0
 70
     8
 71
     3
 72
     9
 73
     5
 74
     0
 42
0.00000001
 43
0.00000001
 40
0.0
 40
0.0
 40
0.0
 40
0.0
 40
0.500102123575353
 40
1.0
 40
1.0
 40
1.0
 40
1.0
 10
412.5400031888006
 20
366.7837608879529
 30
0.0
 10
412.6257365406216
 20
366.7836290651395
 30
0.0
 10
412.7971682298297
 20
366.7833654733506
 30
0.0
 10
412.9686289278904
 20
366.7835551688297
 30
0.0
 10
413.0543417667412
 20
366.7836499971969
 30
0.0
  0
LINE
  5
179
330
1F
100
AcDbEntity
  8
0
  6
Continuous
 62
     7
370
    15
100
AcDbLine
 10
413.0542588183
 20
321.147287878
 30
0.0
 11
412.5399871493
 21
321.147287878
 31
0.0
  0
LINE
  5
17A
330
1F
100
AcDbEntity
  8
0
  6
Continuous
 62
     7
370
    15
100
AcDbLine
 10
428.0992585674
 20
321.147287878
 30
0.0
 11
413.0542588183
 21
321.147287878
 31
0.0
  0
SPLINE
  5
17B
330
1F
100
AcDbEntity
  8
0
  6
Continuous
 62
     7
370
    15
100
AcDbSpline
210
0.0
220
0.0
230
1.0
 70
     8
 71
     3
 72
     8
 73
     4
 74
     0
 42
0.00000001
 43
0.00000001
 40
0.0
 40
0.0
 40
0.0
 40
0.0
 40
0.0000974462047406
 40
0.0000974462047406
 40
0.0000974462047406
 40
0.0000974462047406
 10
453.9471378379537
 20
342.6045003625477
 30
0.0
 10
453.9168605336838
 20
342.6142761215541
 30
0.0
 10
453.8868594417165
 20
342.6247487104323
 30
0.0
 10
453.8573628619284
 20
342.6361975515659
 30
0.0
  0
LINE
  5
17C
330
1F
100
AcDbEntity
  8
0
  6
Continuous
 62
     7
370
    15
100
AcDbLine
 10
434.2175584981
 20
366.7837871786
 30
0.0
 11
444.5577303642
 21
366.7837871786
 31
0.0
  0
SPLINE
  5
17D
330
1F
100
AcDbEntity
  8
0
  6
Continuous
 62
     7
370
    15
100
AcDbSpline
210
0.0
220
0.0
230
1.0
 70
     8
 71
     3
 72
    23
 73
    19
 74
     0
 42
0.00000001
 43
0.00000001
 40
0.0
 40
0.0
 40
0.0
 40
0.0
 40
0.0311161364851153
 40
0.0945628832942329
 40
0.1567415982088884
 40
0.2207418081347509
 40
0.2837211523641551
 40
0.3485821932528158
 40
0.4127782891315026
 40
0.4789274208199245
 40
0.5440623585365155
 40
0.6111626338149346
 40
0.6759390743884075
 40
0.7425815537142155
 40
0.8059970189303589
 40
0.8711658958793421
 40
0.93465310337264
 40
1.0
 40
1.0
 40
1.0
 40
1.0
 10
390.4717474007737
 20
400.0459207768921
 30
0.0
 10
390.4567658031148
 20
400.0440321916895
 30
0.0
 10
390.4112362730697
 20
400.0382927239317
 30
0.0
 10
391.0149118026171
 20
400.1143731816003
 30
0.0
 10
392.2402526968642
 20
400.2733828426219
 30
0.0
 10
394.0779529254724
 20
400.52254633356
 30
0.0
 10
396.470270024091
 20
400.8666951879101
 30
0.0
 10
399.3371310546552
 20
401.3082956561682
 30
0.0
 10
402.6403152977561
 20
401.8568895194202
 30
0.0
 10
406.2409638523836
 20
402.5034302543044
 30
0.0
 10
410.0786582724467
 20
403.2484224493867
 30
0.0
 10
413.9605654832012
 20
404.0608248822779
 30
0.0
 10
417.8263170747234
 20
404.928507927521
 30
0.0
 10
421.4719177237454
 20
405.8004507724674
 30
0.0
 10
424.8790364083744
 20
406.662253122958
 30
0.0
 10
427.891877611443
 20
407.461935353287
 30
0.0
 10
430.5567108382491
 20
408.1982260833374
 30
0.0
 10
431.894153136031
 20
408.5819280615408
 30
0.0
 10
432.5725271129739
 20
408.7765483732704
 30
0.0
  0
LINE
  5
17E
330
1F
100
AcDbEntity
  8
0
  6
Continuous
 62
     7
370
    15
100
AcDbLine
 10
396.1111812616
 20
366.7837871786
 30
0.0
 11
412.5399871493
 21
366.7837871786
 31
0.0
  0
LINE
  5
17F
330
1F
100
AcDbEntity
  8
0
  6
Continuous
 62
     7
370
    15
100
AcDbLine
 10
396.1111812616
 20
321.147287878
 30
0.0
 11
412.5399871493
 21
321.147287878
 31
0.0
  0
SPLINE
  5
180
330
1F
100
AcDbEntity
  8
0
  6
Continuous
 62
     7
370
    15
100
AcDbSpline
210
0.0
220
0.0
230
1.0
 70
     8
 71
     3
 72
    20
 73
    16
 74
     0
 42
0.00000001
 43
0.00000001
 40
0.0
 40
0.0
 40
0.0
 40
0.0
 40
0.0000335793598141
 40
0.0000335793598141
 40
0.0000335793598141
 40
0.0000671563038502
 40
0.0000671563038502
 40
0.0000671563038502
 40
0.0001007732534282
 40
0.0001007732534282
 40
0.0001007732534282
 40
0.000134493853657
 40
0.000134493853657
 40
0.000134493853657
 40
0.0001569080845744
 40
0.0001569080845744
 40
0.0001569080845744
 40
0.0001569080845744
 10
435.9777537055103
 20
385.6860371336683
 30
0.0
 10
435.9777537055103
 20
385.6972302536063
 30
0.0
 10
435.9779138455435
 20
385.7085777562768
 30
0.0
 10
435.9782194562717
 20
385.7191394453204
 30
0.0
 10
435.9785250551976
 20
385.7297007264885
 30
0.0
 10
435.9789843737032
 20
385.7397671058369
 30
0.0
 10
435.9795557685736
 20
385.7485093784065
 30
0.0
 10
435.9801278585098
 20
385.7572622853971
 30
0.0
 10
435.9808277876874
 20
385.7649286653258
 30
0.0
 10
435.9815936773574
 20
385.7708820400685
 30
0.0
 10
435.9823619060411
 20
385.7768535963149
 30
0.0
 10
435.9832174126753
 20
385.7812660060766
 30
0.0
 10
435.9840868178588
 20
385.7837602676741
 30
0.0
 10
435.9846692902788
 20
385.7854313395934
 30
0.0
 10
435.985266823799
 20
385.7862800458009
 30
0.0
 10
435.9858568820989
 20
385.7862753084075
 30
0.0
  0
LINE
  5
181
330
1F
100
AcDbEntity
  8
0
  6
Continuous
 62
     7
370
    15
100
AcDbLine
 10
435.9777535075
 20
385.0770896848
 30
0.0
 11
435.9777535075
 21
385.6860368128
 31
0.0
  0
ELLIPSE
  5
182
330
1F
100
AcDbEntity
  8
0
  6
Continuous
 62
     7
370
    15
100
AcDbEllipse
 10
412.9877782784
 20
383.3537836439
 30
0.0
 11
-16.31224633518826
 21
16.44373799002187
 31
0.0
210
0.0
220
0.0
230
0.9999999999999998
 40
0.9920035423
 41
3.979497844064687
 42
4.009786128717851
  0
ELLIPSE
  5
183
330
1F
100
AcDbEntity
  8
0
  6
Continuous
 62
     7
370
    15
100
AcDbEllipse
 10
412.9877782784
 20
384.772285563
 30
0.0
 11
-16.31224633519651
 21
16.44373799001363
 31
0.0
210
0.0
220
0.0
230
1.0
 40
0.9920035423
 41
3.84419550525667
 42
3.874483789909837
  0
LINE
  5
184
330
1F
100
AcDbEntity
  8
0
  6
Continuous
 62
     7
370
    15
100
AcDbLine
 10
435.9777535075
 20
382.0708735462
 30
0.0
 11
435.9777535075
 21
382.6798206742
 31
0.0
  0
SPLINE
  5
185
330
1F
100
AcDbEntity
  8
0
  6
Continuous
 62
     7
370
    15
100
AcDbSpline
210
0.0
220
0.0
230
1.0
 70
     8
 71
     3
 72
    20
 73
    16
 74
     0
 42
0.00000001
 43
0.00000001
 40
0.0
 40
0.0
 40
0.0
 40
0.0
 40
0.0000338801644666
 40
0.0000338801644666
 40
0.0000338801644666
 40
0.0000677619766911
 40
0.0000677619766911
 40
0.0000677619766911
 40
0.0001016145415972
 40
0.0001016145415972
 40
0.0001016145415972
 40
0.0001353697584217
 40
0.0001353697584217
 40
0.0001353697584217
 40
0.0001569727532627
 40
0.0001569727532627
 40
0.0001569727532627
 40
0.0001569727532627
 10
435.9858568820989
 20
381.970505146199
 30
0.0
 10
435.9849720122954
 20
381.9705122505418
 30
0.0
 10
435.9840663181839
 20
381.9724686923138
 30
0.0
 10
435.983216114191
 20
381.9762127139722
 30
0.0
 10
435.9823658891198
 20
381.979956828453
 30
0.0
 10
435.9815477909182
 20
381.9855923151676
 30
0.0
 10
435.9808332932549
 20
381.9926551387543
 30
0.0
 10
435.9801194344736
 20
381.9997116469803
 30
0.0
 10
435.9794894418336
 20
382.0083888101606
 30
0.0
 10
435.9790001905411
 20
382.0179679997023
 30
0.0
 10
435.9785123370545
 20
382.0275198212063
 30
0.0
 10
435.978151114235
 20
382.0382334239517
 30
0.0
 10
435.9779498611449
 20
382.0492177671192
 30
0.0
 10
435.9778199693909
 20
382.0563072264651
 30
0.0
 10
435.9777537055103
 20
382.0636116586244
 30
0.0
 10
435.9777537055103
 20
382.0708734366757
 30
0.0
  0
LINE
  5
186
330
1F
100
AcDbEntity
  8
0
  6
Continuous
 62
     7
370
    15
100
AcDbLine
 10
436.0567780906
 20
371.8316114123
 30
0.0
 11
410.400914284
 21
371.8316114123
 31
0.0
  0
SPLINE
  5
187
330
1F
100
AcDbEntity
  8
0
  6
Continuous
 62
     7
370
    15
100
AcDbSpline
210
0.0
220
0.0
230
1.0
 70
     8
 71
     3
 72
    10
 73
     6
 74
     0
 42
0.00000001
 43
0.00000001
 40
0.0
 40
0.0
 40
0.0
 40
0.0
 40
0.5
 40
0.5
 40
1.0
 40
1.0
 40
1.0
 40
1.0
 10
405.6980747891155
 20
372.7884134189954
 30
0.0
 10
406.4288406940968
 20
372.4782216957862
 30
0.0
 10
407.1858131806558
 20
372.2413217247037
 30
0.0
 10
408.7554958745484
 20
371.9177123567723
 30
0.0
 10
409.5748670208013
 20
371.831609835149
 30
0.0
 10
410.4009146516123
 20
371.831609835149
 30
0.0
  0
LWPOLYLINE
  5
188
330
1F
100
AcDbEntity
  8
0
  6
Continuous
 62
     7
370
    15
100
AcDbPolyline
 90
       12
 70
   128
 43
0.0
 10
405.6980742836
 20
372.7884149726
 10
403.2646345669
 20
373.8213485654
 10
400.956476363
 20
374.8011036392
 10
398.8033368015
 20
375.7150551851
 10
396.8329599822
 20
376.5514312859
 10
395.0707300329
 20
377.2994546767
 10
393.5393600488
 20
377.9494805809
 10
392.2585754419
 20
378.4931419964
 10
391.2448829734
 20
378.9234316524
 10
390.5113397861
 20
379.2347988661
 10
390.0673969412
 20
379.4232426758
 10
389.9187764847
 20
379.4863267417
  0
SPLINE
  5
189
330
1F
100
AcDbEntity
  8
0
  6
Continuous
 62
     7
370
    15
100
AcDbSpline
210
0.0
220
0.0
230
1.0
 70
     8
 71
     3
 72
    17
 73
    13
 74
     0
 42
0.00000001
 43
0.00000001
 40
0.0
 40
0.0
 40
0.0
 40
0.0
 40
0.0363260347635802
 40
0.1442374946539101
 40
0.2521820359396895
 40
0.3598220343891286
 40
0.4669188434830444
 40
0.5735469990053069
 40
0.6800982458451127
 40
0.7870340234195179
 40
0.8945613876213322
 40
1.0
 40
1.0
 40
1.0
 40
1.0
 10
435.9692263180149
 20
384.3736654694561
 30
0.0
 10
435.9676090027168
 20
384.3754245426921
 30
0.0
 10
435.9611872308887
 20
384.3824091838216
 30
0.0
 10
435.9489002398769
 20
384.3359257039094
 30
0.0
 10
435.9348823406727
 20
384.2388141338798
 30
0.0
 10
435.9243956311988
 20
384.097052315816
 30
0.0
 10
435.9193519136456
 20
383.9320352995474
 30
0.0
 10
435.9205622130821
 20
383.7613921584281
 30
0.0
 10
435.9277775927647
 20
383.6038899195618
 30
0.0
 10
435.9397161198482
 20
383.4779957178519
 30
0.0
 10
435.9544682814166
 20
383.3930419603324
 30
0.0
 10
435.9644495001886
 20
383.3827516473438
 30
0.0
 10
435.9693911621106
 20
383.3776569540981
 30
0.0
  0
LINE
  5
18A
330
1F
100
AcDbEntity
  8
0
  6
Continuous
 62
     7
370
    15
100
AcDbLine
 10
457.5875553066
 20
341.7087878648
 30
0.0
 11
457.5640170598
 21
341.7087878648
 31
0.0
  0
LINE
  5
18B
330
1F
100
AcDbEntity
  8
0
  6
Continuous
 62
     7
370
    15
100
AcDbLine
 10
412.987778219
 20
369.291287529
 30
0.0
 11
434.5522781597
 21
369.291287529
 31
0.0
  0
LINE
  5
18C
330
1F
100
AcDbEntity
  8
0
  6
Continuous
 62
     7
370
    15
100
AcDbLine
 10
395.2268457735
 20
369.291287529
 30
0.0
 11
412.987778219
 21
369.291287529
 31
0.0
  0
SPLINE
  5
18D
330
1F
100
AcDbEntity
  8
0
  6
Continuous
 62
     7
370
    15
100
AcDbSpline
210
0.0
220
0.0
230
1.0
 70
     8
 71
     3
 72
    13
 73
     9
 74
     0
 42
0.00000001
 43
0.00000001
 40
0.0
 40
0.0
 40
0.0
 40
0.0
 40
0.1223155404020203
 40
0.299516295046226
 40
0.4697241002455312
 40
0.6445203203961192
 40
0.8209591647786657
 40
0.9999999999999999
 40
0.9999999999999999
 40
0.9999999999999999
 40
0.9999999999999999
 10
452.201271685375
 20
340.9026699687723
 30
0.0
 10
452.2036735723547
 20
340.9034076166241
 30
0.0
 10
452.2095551168166
 20
340.9052139083748
 30
0.0
 10
452.5632534436791
 20
341.0052100921667
 30
0.0
 10
453.1997432235163
 20
341.1646308161985
 30
0.0
 10
454.1137352423035
 20
341.351282136631
 30
0.0
 10
455.2764155349912
 20
341.5352573188092
 30
0.0
 10
456.2411826333155
 20
341.618730506521
 30
0.0
 10
456.727097066654
 20
341.660772598106
 30
0.0
  0
LINE
  5
18E
330
1F
100
AcDbEntity
  8
0
  6
Continuous
 62
     7
370
    15
100
AcDbLine
 10
444.5577303642
 20
366.7837871786
 30
0.0
 11
522.469660523
 21
366.7837871786
 31
0.0
  0
LINE
  5
18F
330
1F
100
AcDbEntity
  8
0
  6
Continuous
 62
     7
370
    15
100
AcDbLine
 10
534.417255106
 20
364.8780888494
 30
0.0
 11
534.417255106
 21
353.7447700824
 31
0.0
  0
ARC
  5
190
330
1F
100
AcDbEntity
  8
0
  6
Continuous
 62
     7
370
    15
100
AcDbCircle
 10
532.5115585672
 20
364.8780880391
 30
0.0
 40
1.905700000000024
100
AcDbArc
 50
0.0
 51
90.0
  0
LINE
  5
191
330
1F
100
AcDbEntity
  8
0
  6
Continuous
 62
     7
370
    15
100
AcDbLine
 10
522.469660523
 20
366.7837871786
 30
0.0
 11
532.5115605021
 21
366.7837871786
 31
0.0
  0
SPLINE
  5
192
330
1F
100
AcDbEntity
  8
0
  6
Continuous
 62
     7
370
    15
100
AcDbSpline
210
0.0
220
0.0
230
1.0
 70
    24
 71
     3
 72
    30
 73
    26
 74
     0
 42
0.00000001
 43
0.00000001
 40
0.0
 40
0.0
 40
0.0
 40
0.0
 40
0.0624999999999998
 40
0.0624999999999998
 40
0.1249999999999997
 40
0.1249999999999997
 40
0.1874999999999993
 40
0.1874999999999993
 40
0.2499999999999989
 40
0.2499999999999989
 40
0.3749999999999991
 40
0.3749999999999991
 40
0.4375
 40
0.4375
 40
0.5000000000000008
 40
0.5000000000000008
 40
0.6250000000000003
 40
0.6250000000000003
 40
0.6875000000000003
 40
0.6875000000000003
 40
0.7500000000000002
 40
0.7500000000000002
 40
0.8750000000000001
 40
0.8750000000000001
 40
1.0
 40
1.0
 40
1.0
 40
1.0
 10
527.7218395893555
 20
341.7087880390561
 30
0.0
 10
527.6157264190797
 20
341.7087880390561
 30
0.0
 10
527.495587603361
 20
341.7087880390561
 30
0.0
 10
527.2207159777935
 20
341.7087880390561
 30
0.0
 10
527.0676662633521
 20
341.7087880390561
 30
0.0
 10
526.7296058053005
 20
341.7087880390561
 30
0.0
 10
526.5440893668924
 20
341.7087880390561
 30
0.0
 10
526.1495553113158
 20
341.7087880390561
 30
0.0
 10
525.9398849353178
 20
341.7087880390561
 30
0.0
 10
525.2757286245586
 20
341.7087880390561
 30
0.0
 10
524.786407181465
 20
341.7087880390561
 30
0.0
 10
523.98231245164
 20
341.7087880390561
 30
0.0
 10
523.7010385132066
 20
341.7087880390561
 30
0.0
 10
523.1244017215965
 20
341.7087880390561
 30
0.0
 10
522.828565710661
 20
341.7087880390561
 30
0.0
 10
521.9194595533224
 20
341.7087880390561
 30
0.0
 10
521.2845073353973
 20
341.7087880390562
 30
0.0
 10
520.2930581403228
 20
341.7087880390562
 30
0.0
 10
519.9547763011522
 20
341.7087880390562
 30
0.0
 10
519.2732322133743
 20
341.7087880390562
 30
0.0
 10
518.9303621656243
 20
341.7087880390561
 30
0.0
 10
517.8958706093118
 20
341.7087880390561
 30
0.0
 10
517.1982651068038
 20
341.7087880390561
 30
0.0
 10
515.7888504582879
 20
341.7087880390561
 30
0.0
 10
515.0766780088707
 20
341.7087880390561
 30
0.0
 10
514.3559701553808
 20
341.7087880390561
 30
0.0
  0
SPLINE
  5
193
330
1F
100
AcDbEntity
  8
0
  6
Continuous
 62
     7
370
    15
100
AcDbSpline
210
0.0
220
0.0
230
1.0
 70
    24
 71
     3
 72
    17
 73
    13
 74
     0
 42
0.00000001
 43
0.00000001
 40
0.0
 40
0.0
 40
0.0
 40
0.0
 40
0.0100843214739973
 40
0.0100843214739973
 40
0.0100843214739973
 40
0.016342828584359
 40
0.016342828584359
 40
0.016342828584359
 40
0.0490258163713087
 40
0.0490258163713087
 40
0.0490258163713087
 40
0.0567684673566319
 40
0.0567684673566319
 40
0.0567684673566319
 40
0.0567684673566319
 10
514.3559696855601
 20
341.7087880390561
 30
0.0
 10
510.9945328918092
 20
341.7087880390561
 30
0.0
 10
507.6330887863564
 20
341.7087880390561
 30
0.0
 10
504.2716498237747
 20
341.7087880390561
 30
0.0
 10
502.1854816810334
 20
341.7087880390561
 30
0.0
 10
500.0993143302165
 20
341.7087880390561
 30
0.0
 10
498.013147574326
 20
341.7087880390561
 30
0.0
 10
487.1188299605844
 20
341.7087880390561
 30
0.0
 10
476.2245149575878
 20
341.7087880390561
 30
0.0
 10
465.3301980086992
 20
341.7087880390561
 30
0.0
 10
462.7493172633353
 20
341.7087880390561
 30
0.0
 10
460.1684364604174
 20
341.7087880390561
 30
0.0
 10
457.58755563838
 20
341.7087880390561
 30
0.0
  0
LINE
  5
194
330
1F
100
AcDbEntity
  8
0
  6
Continuous
 62
     7
370
    15
100
AcDbLine
 10
524.3872611547
 20
340.8548879984
 30
0.0
 11
525.3902583146
 21
340.8548879984
 31
0.0
  0
LINE
  5
195
330
1F
100
AcDbEntity
  8
0
  6
Continuous
 62
     7
370
    15
100
AcDbLine
 10
524.3872611547
 20
340.8548879984
 30
0.0
 11
524.3872611547
 21
337.4219703569
 31
0.0
  0
LINE
  5
196
330
1F
100
AcDbEntity
  8
0
  6
Continuous
 62
     7
370
    15
100
AcDbLine
 10
524.3872611547
 20
337.4219703569
 30
0.0
 11
502.3212565804
 21
337.4219703569
 31
0.0
  0
LINE
  5
197
330
1F
100
AcDbEntity
  8
0
  6
Continuous
 62
     7
370
    15
100
AcDbLine
 10
502.3212565804
 20
340.8548879984
 30
0.0
 11
502.3212565804
 21
337.4219703569
 31
0.0
  0
LINE
  5
198
330
1F
100
AcDbEntity
  8
0
  6
Continuous
 62
     7
370
    15
100
AcDbLine
 10
501.3182594204
 20
340.8548879984
 30
0.0
 11
502.3212565804
 21
340.8548879984
 31
0.0
  0
LINE
  5
199
330
1F
100
AcDbEntity
  8
0
  6
Continuous
 62
     7
370
    15
100
AcDbLine
 10
524.3872611547
 20
336.8428880663
 30
0.0
 11
502.3212565804
 21
336.8428880663
 31
0.0
  0
SPLINE
  5
19A
330
1F
100
AcDbEntity
  8
0
  6
Continuous
 62
     7
370
    15
100
AcDbSpline
210
0.0
220
0.0
230
1.0
 70
    24
 71
     3
 72
     8
 73
     4
 74
     0
 42
0.00000001
 43
0.00000001
 40
0.0
 40
0.0
 40
0.0
 40
0.0
 40
1.0
 40
1.0
 40
1.0
 40
1.0
 10
502.3212585672244
 20
337.4219703944725
 30
0.0
 10
502.3212585672244
 20
337.056126191326
 30
0.0
 10
502.3212585672244
 20
336.8428880744751
 30
0.0
 10
502.3212585672244
 20
336.8428880744751
 30
0.0
  0
SPLINE
  5
19B
330
1F
100
AcDbEntity
  8
0
  6
Continuous
 62
     7
370
    15
100
AcDbSpline
210
0.0
220
0.0
230
1.0
 70
    24
 71
     3
 72
     8
 73
     4
 74
     0
 42
0.00000001
 43
0.00000001
 40
0.0
 40
0.0
 40
0.0
 40
0.0
 40
1.0
 40
1.0
 40
1.0
 40
1.0
 10
524.3872585672244
 20
337.4219703944725
 30
0.0
 10
524.3872585672244
 20
337.0561261913261
 30
0.0
 10
524.3872585672243
 20
336.8428880744751
 30
0.0
 10
524.3872585672243
 20
336.8428880744751
 30
0.0
  0
LINE
  5
19C
330
1F
100
AcDbEntity
  8
0
  6
Continuous
 62
     7
370
    15
100
AcDbLine
 10
474.2372578704
 20
339.7027879569
 30
0.0
 11
452.1712588841
 21
339.7027879569
 31
0.0
  0
LINE
  5
19D
330
1F
100
AcDbEntity
  8
0
  6
Continuous
 62
     7
370
    15
100
AcDbLine
 10
472.6826085472
 20
321.3478882413
 30
0.0
 11
453.7259082073
 21
321.3478882413
 31
0.0
  0
LINE
  5
19E
330
1F
100
AcDbEntity
  8
0
  6
Continuous
 62
     7
370
    15
100
AcDbLine
 10
473.6354595745
 20
322.3007383372
 30
0.0
 11
452.7730590427
 21
322.3007383372
 31
0.0
  0
LINE
  5
19F
330
1F
100
AcDbEntity
  8
0
  6
Continuous
 62
     7
370
    15
100
AcDbLine
 10
488.3582650447
 20
416.7573197361
 30
0.0
 11
487.6527919197
 21
420.0763000722
 31
0.0
  0
LINE
  5
1A0
330
1F
100
AcDbEntity
  8
0
  6
Continuous
 62
     7
370
    15
100
AcDbLine
 10
481.9077609801
 20
413.3354096289
 30
0.0
 11
481.4298509383
 21
413.2338209625
 31
0.0
  0
SPLINE
  5
1A1
330
1F
100
AcDbEntity
  8
0
  6
Continuous
 62
     7
370
    15
100
AcDbSpline
210
0.0
220
0.0
230
1.0
 70
     8
 71
     3
 72
     8
 73
     4
 74
     0
 42
0.00000001
 43
0.00000001
 40
0.0
 40
0.0
 40
0.0
 40
0.0
 40
1.0
 40
1.0
 40
1.0
 40
1.0
 10
479.1999725800935
 20
412.7598812173986
 30
0.0
 10
479.9433225689948
 20
412.9185197743719
 30
0.0
 10
480.6865945922872
 20
413.076269516249
 30
0.0
 10
481.4298495321529
 20
413.2338245054946
 30
0.0
  0
LINE
  5
1A2
330
1F
100
AcDbEntity
  8
0
  6
Continuous
 62
     7
370
    15
100
AcDbLine
 10
479.1999741221
 20
412.7598522778
 30
0.0
 11
436.3272025013
 21
403.6469577427
 31
0.0
  0
ARC
  5
1A3
330
1F
100
AcDbEntity
  8
0
  6
Continuous
 62
     7
370
    15
100
AcDbCircle
 10
486.3961002096
 20
416.3402489064
 30
0.0
 40
2.006000000000066
100
AcDbArc
 50
282.0
 51
12.0
  0
SPLINE
  5
1A4
330
1F
100
AcDbEntity
  8
0
  6
Continuous
 62
     7
370
    15
100
AcDbSpline
210
0.0
220
0.0
230
1.0
 70
     8
 71
     3
 72
    12
 73
     8
 74
     0
 42
0.00000001
 43
0.00000001
 40
0.0
 40
0.0
 40
0.0
 40
0.0
 40
0.2005415221883958
 40
0.4003899847223894
 40
0.5999674863293206
 40
0.7996973215040666
 40
1.0
 40
1.0
 40
1.0
 40
1.0
 10
486.2742589875106
 20
414.2635355491316
 30
0.0
 10
486.3074508147194
 20
414.2706029549311
 30
0.0
 10
486.3737197601428
 20
414.2847133419932
 30
0.0
 10
486.461387772443
 20
414.3033791309913
 30
0.0
 10
486.539892700957
 20
414.3200738243771
 30
0.0
 10
486.6093094954135
 20
414.3348067103697
 30
0.0
 10
486.6473656124562
 20
414.3428598682169
 30
0.0
 10
486.6664209190033
 20
414.3468922131688
 30
0.0
  0
LWPOLYLINE
  5
1A5
330
1F
100
AcDbEntity
  8
0
  6
Continuous
 62
     7
370
    15
100
AcDbPolyline
 90
        3
 70
   128
 43
0.0
 10
486.2739315951
 20
414.2634688492
 10
485.5363315666
 20
414.1066862817
 10
484.5456576669
 20
413.8961105223
  0
SPLINE
  5
1A6
330
1F
100
AcDbEntity
  8
0
  6
Continuous
 62
     7
370
    15
100
AcDbSpline
210
0.0
220
0.0
230
1.0
 70
     8
 71
     3
 72
    14
 73
    10
 74
     0
 42
0.00000001
 43
0.00000001
 40
0.0
 40
0.0
 40
0.0
 40
0.0
 40
0.1433678440746992
 40
0.2860741642629149
 40
0.4284107519270761
 40
0.5706736435652553
 40
0.7131611980020605
 40
0.8561715869276573
 40
1.0
 40
1.0
 40
1.0
 40
1.0
 10
483.1291839471812
 20
413.5950293898485
 30
0.0
 10
483.2007411896945
 20
413.6102875688532
 30
0.0
 10
483.3435254972987
 20
413.6407335230008
 30
0.0
 10
483.5537719340765
 20
413.6855495738341
 30
0.0
 10
483.7602722758277
 20
413.7295174401516
 30
0.0
 10
483.9628333593708
 20
413.77257804161
 30
0.0
 10
484.1613832728404
 20
413.8147127984759
 30
0.0
 10
484.3563840608688
 20
413.8560335165001
 30
0.0
 10
484.4823744693843
 20
413.8827104451787
 30
0.0
 10
484.5455493271543
 20
413.8960869489528
 30
0.0
  0
SPLINE
  5
1A7
330
1F
100
AcDbEntity
  8
0
  6
Continuous
 62
     7
370
    15
100
AcDbSpline
210
0.0
220
0.0
230
1.0
 70
     8
 71
     3
 72
    13
 73
     9
 74
     0
 42
0.00000001
 43
0.00000001
 40
0.0
 40
0.0
 40
0.0
 40
0.0
 40
0.1677791485559111
 40
0.3347226738090573
 40
0.5011216997677512
 40
0.6672712574930296
 40
0.8334663808474798
 40
1.0
 40
1.0
 40
1.0
 40
1.0
 10
481.9078080234779
 20
413.335185429211
 30
0.0
 10
481.9768412599963
 20
413.3498433930448
 30
0.0
 10
482.1145639133056
 20
413.3790863167889
 30
0.0
 10
482.3203900556504
 20
413.4228250911291
 30
0.0
 10
482.5248384890912
 20
413.4662969843282
 30
0.0
 10
482.7278540972627
 20
413.5095034134624
 30
0.0
 10
482.9296292114504
 20
413.5524854711589
 30
0.0
 10
483.0626206031113
 20
413.580838468809
 30
0.0
 10
483.1291839471812
 20
413.5950293898485
 30
0.0
  0
SPLINE
  5
1A8
330
1F
100
AcDbEntity
  8
0
  6
Continuous
 62
     7
370
    15
100
AcDbSpline
210
0.0
220
0.0
230
1.0
 70
     8
 71
     3
 72
     9
 73
     5
 74
     0
 42
0.00000001
 43
0.00000001
 40
0.0
 40
0.0
 40
0.0
 40
0.0
 40
0.2099927453152337
 40
1.0
 40
1.0
 40
1.0
 40
1.0
 10
486.1402309262884
 20
414.3597079988007
 30
0.0
 10
486.1869283316868
 20
414.3511100176324
 30
0.0
 10
486.4093046110594
 20
414.310165835702
 30
0.0
 10
486.6349149415398
 20
414.347957343961
 30
0.0
 10
486.813148739351
 20
414.3778129096512
 30
0.0
  0
LINE
  5
1A9
330
1F
100
AcDbEntity
  8
0
  6
Continuous
 62
     7
370
    15
100
AcDbLine
 10
471.0522203469
 20
373.0048208113
 30
0.0
 11
455.3562982702
 21
373.0048208113
 31
0.0
  0
SPLINE
  5
1AA
330
1F
100
AcDbEntity
  8
0
  6
Continuous
 62
     7
370
    15
100
AcDbSpline
210
0.0
220
0.0
230
1.0
 70
    24
 71
     3
 72
     9
 73
     5
 74
     0
 42
0.00000001
 43
0.00000001
 40
0.0
 40
0.0
 40
0.0
 40
0.0
 40
0.0784987512584957
 40
1.0
 40
1.0
 40
1.0
 40
1.0
 10
528.2595588588846
 20
341.7087878647629
 30
0.0
 10
528.2533223028599
 20
341.7087878647629
 30
0.0
 10
528.1738744654789
 20
341.7087878647629
 30
0.0
 10
527.9386563751934
 20
341.7087878647629
 30
0.0
 10
527.7219026112688
 20
341.7087878647629
 30
0.0
  0
LWPOLYLINE
  5
1AB
330
1F
100
AcDbEntity
  8
0
  6
Continuous
 62
     7
370
    15
100
AcDbPolyline
 90
        5
 70
   128
 43
0.0
 10
487.6492454434
 20
420.0929968234
 10
487.6494652355
 20
420.0919537421
 10
487.6501320624
 20
420.0888244982
 10
487.651242199
 20
420.0836090918
 10
487.6527919197
 20
420.0763000722
  0
LWPOLYLINE
  5
1AC
330
1F
100
AcDbEntity
  8
0
  6
Continuous
 62
     7
370
    15
100
AcDbPolyline
 90
        9
 70
   128
 43
0.0
 10
436.6025722349
 20
380.8912082191
 10
436.6025210121
 20
380.8849199291
 10
436.60247724
 20
380.8794661041
 10
436.6024399871
 20
380.8748467441
 10
436.6024101848
 20
380.8710692997
 10
436.6023869017
 20
380.8681263204
 10
436.6023692066
 20
380.8660252567
 10
436.6023598933
 20
380.8647623833
 10
436.602356168
 20
380.8643451508
  0
LINE
  5
1AD
330
1F
100
AcDbEntity
  8
0
  6
Continuous
 62
     7
370
    15
100
AcDbLine
 10
436.1008724892
 20
380.8683684643
 30
0.0
 11
436.602356168
 21
380.8643451508
 31
0.0
  0
LINE
  5
1AE
330
1F
100
AcDbEntity
  8
0
  6
Continuous
 62
     7
370
    15
100
AcDbLine
 10
436.6506713206
 20
386.8821492966
 30
0.0
 11
436.1491876418
 21
386.8861763354
 31
0.0
  0
LWPOLYLINE
  5
1AF
330
1F
100
AcDbEntity
  8
0
  6
Continuous
 62
     7
370
    15
100
AcDbPolyline
 90
        9
 70
   128
 43
0.0
 10
436.6506713206
 20
386.8821492966
 10
436.6506675953
 20
386.8817283388
 10
436.6506573507
 20
386.8804691906
 10
436.6506405869
 20
386.8783681269
 10
436.6506173039
 20
386.8754251476
 10
436.6505865702
 20
386.8716439779
 10
436.6505493173
 20
386.8670283432
 10
436.6505055452
 20
386.8615745183
 10
436.6504552537
 20
386.8552825029
  0
LINE
  5
1B0
330
1F
100
AcDbEntity
  8
0
  6
Continuous
 62
     7
370
    15
100
AcDbLine
 10
436.7507521758
 20
386.8544778402
 30
0.0
 11
436.6504552537
 21
386.8552825029
 31
0.0
  0
LINE
  5
1B1
330
1F
100
AcDbEntity
  8
0
  6
Continuous
 62
     7
370
    15
100
AcDbLine
 10
436.7028682256
 20
380.8904035564
 30
0.0
 11
436.6025722349
 21
380.8912082191
 31
0.0
  0
LWPOLYLINE
  5
1B2
330
1F
100
AcDbEntity
  8
0
  6
Continuous
 62
     7
370
    15
100
AcDbPolyline
 90
       10
 70
   128
 43
0.0
 10
436.1008724892
 20
380.8683684643
 10
436.1023290777
 20
381.0498273547
 10
436.1065237546
 20
381.5723179455
 10
436.1129508117
 20
382.3728195007
 10
436.1208344573
 20
383.3547836717
 10
436.1292247424
 20
384.3997648533
 10
436.137108388
 20
385.3817252989
 10
436.143535445
 20
386.1822268541
 10
436.1477301219
 20
386.7047174449
 10
436.1491876418
 20
386.8861763354
  0
LWPOLYLINE
  5
1B3
330
1F
100
AcDbEntity
  8
0
  6
Continuous
 62
     7
370
    15
100
AcDbPolyline
 90
        9
 70
   128
 43
0.0
 10
437.3476470584
 20
386.2410640891
 10
437.3453792879
 20
385.9586051281
 10
437.3410663331
 20
385.4213996406
 10
437.3352334598
 20
384.6949009772
 10
437.3285912672
 20
383.8676108594
 10
437.3219490746
 20
383.0403207417
 10
437.3161162013
 20
382.313818353
 10
437.3118032465
 20
381.7766165908
 10
437.309535476
 20
381.4941539045
  0
SPLINE
  5
1B4
330
1F
100
AcDbEntity
  8
0
  6
Continuous
 62
     7
370
    15
100
AcDbSpline
210
0.0
220
0.0
230
1.0
 70
     8
 71
     3
 72
    10
 73
     6
 74
     0
 42
0.00000001
 43
0.00000001
 40
0.0
 40
0.0
 40
0.0
 40
0.0
 40
0.5
 40
0.5
 40
1.0
 40
1.0
 40
1.0
 40
1.0
 10
437.3095352890711
 20
381.4941551211638
 30
0.0
 10
437.3082519317938
 20
381.3343086521976
 30
0.0
 10
437.2429748110321
 20
381.1782196611994
 30
0.0
 10
437.0197185161387
 20
380.9546923711402
 30
0.0
 10
436.8627721090053
 20
380.8891202463185
 30
0.0
 10
436.7028685651065
 20
380.8904040618325
 30
0.0
  0
SPLINE
  5
1B5
330
1F
100
AcDbEntity
  8
0
  6
Continuous
 62
     7
370
    15
100
AcDbSpline
210
0.0
220
0.0
230
1.0
 70
     8
 71
     3
 72
    10
 73
     6
 74
     0
 42
0.00000001
 43
0.00000001
 40
0.0
 40
0.0
 40
0.0
 40
0.0
 40
0.5
 40
0.5
 40
1.0
 40
1.0
 40
1.0
 40
1.0
 10
436.7507522533852
 20
386.85447862478
 30
0.0
 10
436.910624154997
 20
386.8531950633119
 30
0.0
 10
437.0662423656574
 20
386.7852400387029
 30
0.0
 10
437.285834900369
 20
386.5585391042151
 30
0.0
 10
437.3489298898489
 20
386.4008852595865
 30
0.0
 10
437.3476467393787
 20
386.2410645491343
 30
0.0
  0
LINE
  5
1B6
330
1F
100
AcDbEntity
  8
0
  6
Continuous
 62
     7
370
    15
100
AcDbLine
 10
436.1097126031
 20
381.9695121224
 30
0.0
 11
435.9858569452
 21
381.970506775
 31
0.0
  0
LINE
  5
1B7
330
1F
100
AcDbEntity
  8
0
  6
Continuous
 62
     7
370
    15
100
AcDbLine
 10
435.9858569452
 20
385.7862769242
 30
0.0
 11
436.1403465966
 21
385.7850364025
 31
0.0
  0
LINE
  5
1B8
330
1F
100
AcDbEntity
  8
0
  6
Continuous
 62
     7
370
    15
100
AcDbLine
 10
435.9777535075
 20
385.0770896848
 30
0.0
 11
436.1346524903
 21
385.0758305367
 31
0.0
  0
LINE
  5
1B9
330
1F
100
AcDbEntity
  8
0
  6
Continuous
 62
     7
370
    15
100
AcDbLine
 10
436.1154067093
 20
382.678714263
 30
0.0
 11
435.9777535075
 21
382.6798206742
 31
0.0
  0
SPLINE
  5
1BA
330
1F
100
AcDbEntity
  8
0
  6
Continuous
 62
     7
370
    15
100
AcDbSpline
210
0.0
220
0.0
230
1.0
 70
     8
 71
     3
 72
     8
 73
     4
 74
     0
 42
0.00000001
 43
0.00000001
 40
0.0
 40
0.0
 40
0.0
 40
0.0
 40
1.0
 40
1.0
 40
1.0
 40
1.0
 10
416.2207978342401
 20
358.9005184767585
 30
0.0
 10
416.5650093088432
 20
359.7170244195065
 30
0.0
 10
416.988679454483
 20
360.4896618137677
 30
0.0
 10
417.4932302380836
 20
361.2200076575847
 30
0.0
  0
SPLINE
  5
1BB
330
1F
100
AcDbEntity
  8
0
  6
Continuous
 62
     7
370
    15
100
AcDbSpline
210
0.0
220
0.0
230
1.0
 70
     8
 71
     3
 72
     8
 73
     4
 74
     0
 42
0.00000001
 43
0.00000001
 40
0.0
 40
0.0
 40
0.0
 40
0.0
 40
1.0
 40
1.0
 40
1.0
 40
1.0
 10
416.2207978342401
 20
329.0305576013538
 30
0.0
 10
416.5650093088432
 20
328.2140516586057
 30
0.0
 10
416.988679454483
 20
327.4414142643445
 30
0.0
 10
417.4932302380836
 20
326.7110684205276
 30
0.0
  0
SPLINE
  5
1BC
330
1F
100
AcDbEntity
  8
0
  6
Continuous
 62
     8
370
     0
100
AcDbSpline
210
0.0
220
0.0
230
1.0
 70
    24
 71
     3
 72
    20
 73
    16
 74
     0
 42
0.00000001
 43
0.00000001
 40
0.0
 40
0.0
 40
0.0
 40
0.0
 40
0.0833201666995863
 40
0.1666403217994205
 40
0.2499604701699126
 40
0.3332806000548931
 40
0.4166007655339544
 40
0.4999209561548631
 40
0.5832410576131132
 40
0.6665612998788905
 40
0.7498814493744977
 40
0.8332015452049034
 40
0.91652174470569
 40
0.9998418466031723
 40
0.9999999999999999
 40
0.9999999999999999
 40
0.9999999999999999
 40
0.9999999999999999
 10
391.7550018751753
 20
343.9655384595874
 30
0.0
 10
391.7550018751753
 20
342.5182500686445
 30
0.0
 10
391.7550018751752
 20
339.6236734882486
 30
0.0
 10
391.7550018751752
 20
335.3560989155735
 30
0.0
 10
391.7550018751752
 20
331.2358367508396
 30
0.0
 10
391.7550018751752
 20
327.3333737229851
 30
0.0
 10
391.7550018751753
 20
323.7155194306044
 30
0.0
 10
391.7550018751752
 20
320.444055952702
 30
0.0
 10
391.7550018751753
 20
317.5754018966863
 30
0.0
 10
391.7550018751753
 20
315.1569557685098
 30
0.0
 10
391.7550018751753
 20
313.23645595597
 30
0.0
 10
391.7550018751752
 20
311.8229582899331
 30
0.0
 10
391.7550018751754
 20
311.0295213874396
 30
0.0
 10
391.7550018751749
 20
310.7015645157851
 30
0.0
 10
391.7550018751753
 20
310.7964393304049
 30
0.0
 10
391.7550018751753
 20
310.7966190751079
 30
0.0
  0
SPLINE
  5
1BD
330
1F
100
AcDbEntity
  8
0
  6
Continuous
 62
     8
370
     0
100
AcDbSpline
210
0.0
220
0.0
230
1.0
 70
    24
 71
     3
 72
    20
 73
    16
 74
     0
 42
0.00000001
 43
0.00000001
 40
0.0
 40
0.0
 40
0.0
 40
0.0
 40
0.0001486920964051
 40
0.0834695812585513
 40
0.1667905703643752
 40
0.250111467296708
 40
0.3334324063968786
 40
0.4167534183954545
 40
0.5000742976654459
 40
0.5833953047845127
 40
0.6667162673036793
 40
0.7500371747626482
 40
0.8333581164423964
 40
0.9166790704656538
 40
1.0
 40
1.0
 40
1.0
 40
1.0
 10
391.7550018751753
 20
377.1344876463893
 30
0.0
 10
391.7550018751753
 20
377.1346568003506
 30
0.0
 10
391.7550018751764
 20
377.229612824606
 30
0.0
 10
391.7550018751747
 20
376.901500186619
 30
0.0
 10
391.7550018751754
 20
376.1081339538022
 30
0.0
 10
391.7550018751752
 20
374.6946147123301
 30
0.0
 10
391.7550018751753
 20
372.7741202781528
 30
0.0
 10
391.7550018751753
 20
370.3556748050575
 30
0.0
 10
391.7550018751753
 20
367.4870218588259
 30
0.0
 10
391.7550018751753
 20
364.2155565604828
 30
0.0
 10
391.7550018751753
 20
360.5977020806765
 30
0.0
 10
391.7550018751752
 20
356.6952392622862
 30
0.0
 10
391.7550018751753
 20
352.5749769961231
 30
0.0
 10
391.7550018751752
 20
348.307402650984
 30
0.0
 10
391.7550018751752
 20
345.4128263815952
 30
0.0
 10
391.7550018751753
 20
343.9655384595874
 30
0.0
  0
LINE
  5
1BE
330
1F
100
AcDbEntity
  8
0
  6
Continuous
 62
     8
370
     0
100
AcDbLine
 10
401.989791798
 20
341.2793289486
 30
0.0
 11
401.989791798
 21
346.6517475049
 31
0.0
  0
LINE
  5
1BF
330
1F
100
AcDbEntity
  8
0
  6
Continuous
 62
     8
370
     0
100
AcDbLine
 10
401.989791798
 20
328.9205382194
 30
0.0
 11
401.989791798
 21
331.6067472647
 31
0.0
  0
LINE
  5
1C0
330
1F
100
AcDbEntity
  8
0
  6
Continuous
 62
     8
370
     0
100
AcDbLine
 10
401.989791798
 20
356.3243287231
 30
0.0
 11
401.989791798
 21
359.0105386998
 31
0.0
  0
LINE
  5
1C1
330
1F
100
AcDbEntity
  8
0
  6
Continuous
 62
     8
370
     0
100
AcDbLine
 10
411.0797255063
 20
356.3243287231
 30
0.0
 11
411.0797255063
 21
359.0105386998
 31
0.0
  0
LINE
  5
1C2
330
1F
100
AcDbEntity
  8
0
  6
Continuous
 62
     8
370
     0
100
AcDbLine
 10
411.0797255063
 20
328.9205382194
 30
0.0
 11
411.0797255063
 21
331.6067472647
 31
0.0
  0
LINE
  5
1C3
330
1F
100
AcDbEntity
  8
0
  6
Continuous
 62
     8
370
     0
100
AcDbLine
 10
411.0797255063
 20
341.2793289486
 30
0.0
 11
411.0797255063
 21
346.6517475049
 31
0.0
  0
SPLINE
  5
1C4
330
1F
100
AcDbEntity
  8
0
  6
Continuous
 62
     8
370
     0
100
AcDbSpline
210
0.0
220
0.0
230
1.0
 70
     8
 71
     3
 72
    26
 73
    22
 74
     0
 42
0.00000001
 43
0.00000001
 40
0.0
 40
0.0
 40
0.0
 40
0.0
 40
0.1250000000000003
 40
0.1250000000000003
 40
0.2500000000000007
 40
0.2500000000000007
 40
0.3125000000000009
 40
0.3125000000000009
 40
0.375000000000001
 40
0.375000000000001
 40
0.500000000000001
 40
0.500000000000001
 40
0.625000000000001
 40
0.625000000000001
 40
0.750000000000001
 40
0.750000000000001
 40
0.8125000000000008
 40
0.8125000000000008
 40
0.8750000000000006
 40
0.8750000000000006
 40
1.0
 40
1.0
 40
1.0
 40
1.0
 10
416.0980254025775
 20
358.5987535535508
 30
0.0
 10
416.1029381780706
 20
358.6040881871165
 30
0.0
 10
416.1073440933709
 20
358.5130672655086
 30
0.0
 10
416.1166319965765
 20
358.1424234567278
 30
0.0
 10
416.1214245723737
 20
357.8666262058709
 30
0.0
 10
416.1299139123501
 20
357.323216052804
 30
0.0
 10
416.1329623523358
 20
357.1202854615852
 30
0.0
 10
416.1397397385549
 20
356.6695424839344
 30
0.0
 10
416.1434638258995
 20
356.4211815486784
 30
0.0
 10
416.1557620305566
 20
355.6249373025839
 30
0.0
 10
416.1654617788711
 20
355.0216075166591
 30
0.0
 10
416.190884894786
 20
353.6696114948292
 30
0.0
 10
416.2070262825654
 20
352.912400048372
 30
0.0
 10
416.2477441192062
 20
351.3115233788464
 30
0.0
 10
416.2728747674609
 20
350.4660660410254
 30
0.0
 10
416.3109553823778
 20
349.1338978172487
 30
0.0
 10
416.3235909446745
 20
348.6775218058938
 30
0.0
 10
416.3466769944984
 20
347.7501716840044
 30
0.0
 10
416.3569930761782
 20
347.2836103350432
 30
0.0
 10
416.3823305888234
 20
345.8759933254975
 30
0.0
 10
416.3915429094531
 20
344.9271451949188
 30
0.0
 10
416.3915488655001
 20
343.9655380390559
 30
0.0
  0
SPLINE
  5
1C5
330
1F
100
AcDbEntity
  8
0
  6
Continuous
 62
     8
370
     0
100
AcDbSpline
210
0.0
220
0.0
230
1.0
 70
     8
 71
     3
 72
    29
 73
    25
 74
     0
 42
0.00000001
 43
0.00000001
 40
0.0
 40
0.0
 40
0.0
 40
0.0
 40
0.0157587542483867
 40
0.0314284073280298
 40
0.0470230979397983
 40
0.062556768715871
 40
0.0780431688864375
 40
0.0934958766133692
 40
0.1089283377804434
 40
0.1243539172956588
 40
0.1872086338836471
 40
0.2496809454751219
 40
0.3112483091442689
 40
0.374539427244571
 40
0.5003041803510117
 40
0.6247702633491181
 40
0.6862687662029674
 40
0.7499230546961179
 40
0.8113404072496638
 40
0.8745168771132448
 40
0.9061168744309633
 40
0.9375356276017437
 40
0.9688100561547686
 40
1.0
 40
1.0
 40
1.0
 40
1.0
 10
416.3915488704895
 20
343.9655380390564
 30
0.0
 10
416.3914828250229
 20
343.8445183392397
 30
0.0
 10
416.3913511075156
 20
343.6031631939911
 30
0.0
 10
416.3901720482652
 20
343.242250897326
 30
0.0
 10
416.3881791930713
 20
342.8834721398819
 30
0.0
 10
416.3852857518822
 20
342.5267061296275
 30
0.0
 10
416.3815184472675
 20
342.1718343111777
 30
0.0
 10
416.3769202644363
 20
341.8187438562375
 30
0.0
 10
416.371555554216
 20
341.4673152865208
 30
0.0
 10
416.3594311230626
 20
340.7590633851588
 30
0.0
 10
416.3361851345554
 20
339.7069830591179
 30
0.0
 10
416.2985748043438
 20
338.3514084401443
 30
0.0
 10
416.260249323444
 20
337.047258873174
 30
0.0
 10
416.214970244239
 20
335.3943186108202
 30
0.0
 10
416.1752719660221
 20
333.5252904936265
 30
0.0
 10
416.150962412402
 20
332.0041340262646
 30
0.0
 10
416.1360369894001
 20
331.021900273039
 30
0.0
 10
416.1269787060706
 20
330.4115644923111
 30
0.0
 10
416.1190936575225
 20
329.9270504324982
 30
0.0
 10
416.1130575552529
 20
329.6381916812506
 30
0.0
 10
416.108634849767
 20
329.4754306925183
 30
0.0
 10
416.1053533536301
 20
329.3900381506149
 30
0.0
 10
416.1017603142847
 20
329.3385069724418
 30
0.0
 10
416.0992692500699
 20
329.3343821475435
 30
0.0
 10
416.0980254025775
 20
329.3323225245614
 30
0.0
  0
LINE
  5
1C6
330
1F
100
AcDbEntity
  8
0
  6
Continuous
 62
     8
370
     0
100
AcDbLine
 10
428.0992585674
 20
366.7837871786
 30
0.0
 11
427.6497847979
 21
366.7172013398
 31
0.0
  0
LINE
  5
1C7
330
1F
100
AcDbEntity
  8
0
  6
Continuous
 62
     8
370
     0
100
AcDbLine
 10
420.354441064
 20
364.1016061033
 30
0.0
 11
419.1606773758
 21
363.1732022937
 31
0.0
  0
LINE
  5
1C8
330
1F
100
AcDbEntity
  8
0
  6
Continuous
 62
     8
370
     0
100
AcDbLine
 10
428.0992585674
 20
321.147287878
 30
0.0
 11
427.6497847979
 21
321.2138765107
 31
0.0
  0
LINE
  5
1C9
330
1F
100
AcDbEntity
  8
0
  6
Continuous
 62
     8
370
     0
100
AcDbLine
 10
420.354441064
 20
323.8294698845
 30
0.0
 11
419.1606773758
 21
324.7578727628
 31
0.0
  0
LINE
  5
1CA
330
1F
100
AcDbEntity
  8
0
  6
Continuous
 62
     8
370
     0
100
AcDbLine
 10
415.0602587262
 20
358.1212690647
 30
0.0
 11
416.0632586801
 21
358.1212690647
 31
0.0
  0
LINE
  5
1CB
330
1F
100
AcDbEntity
  8
0
  6
Continuous
 62
     8
370
     0
100
AcDbLine
 10
415.0602587262
 20
329.8098064575
 30
0.0
 11
416.0632586801
 21
329.8098064575
 31
0.0
  0
ARC
  5
1CC
330
1F
100
AcDbEntity
  8
0
  6
Continuous
 62
     8
370
     0
100
AcDbCircle
 10
432.6305630352
 20
408.184451004
 30
0.0
 40
0.5949348392149981
100
AcDbArc
 50
0.3795529352
 51
95.5981087207
  0
LWPOLYLINE
  5
1CD
330
1F
100
AcDbEntity
  8
0
  6
Continuous
 62
     8
370
     0
100
AcDbPolyline
 90
        5
 70
   128
 43
0.0
 10
486.9390300238
 20
420.5397932406
 10
486.9374728525
 20
420.5471097107
 10
486.936362716
 20
420.5523400183
 10
486.935695889
 20
420.5554841633
 10
486.9354723716
 20
420.5565272446
  0
SPLINE
  5
1CE
330
1F
100
AcDbEntity
  8
0
  6
Continuous
 62
     8
370
     0
100
AcDbSpline
210
0.0
220
0.0
230
1.0
 70
     8
 71
     3
 72
    26
 73
    22
 74
     0
 42
0.00000001
 43
0.00000001
 40
0.0
 40
0.0
 40
0.0
 40
0.0
 40
0.1249999999999975
 40
0.1249999999999975
 40
0.1874999999999974
 40
0.1874999999999974
 40
0.2499999999999972
 40
0.2499999999999972
 40
0.3749999999999969
 40
0.3749999999999969
 40
0.4999999999999967
 40
0.4999999999999967
 40
0.6249999999999963
 40
0.6249999999999963
 40
0.6874999999999967
 40
0.6874999999999967
 40
0.749999999999997
 40
0.749999999999997
 40
0.8749999999999984
 40
0.8749999999999984
 40
1.0
 40
1.0
 40
1.0
 40
1.0
 10
480.6914836967482
 20
419.0575417767321
 30
0.0
 10
481.1066032511256
 20
419.1457781618927
 30
0.0
 10
481.5144327207958
 20
419.2339935719588
 30
0.0
 10
482.1157124843982
 20
419.3662039284227
 30
0.0
 10
482.3143823373561
 20
419.410253567239
 30
0.0
 10
482.7081366223923
 20
419.4982767076727
 30
0.0
 10
482.9037402247117
 20
419.542372073904
 30
0.0
 10
483.4724219664657
 20
419.6716060298633
 30
0.0
 10
483.8316795597553
 20
419.7546419587036
 30
0.0
 10
484.5109732976231
 20
419.9140646307068
 30
0.0
 10
484.8322184596505
 20
419.9907730358591
 30
0.0
 10
485.4074700925207
 20
420.1303155951187
 30
0.0
 10
485.6653203141236
 20
420.1940403056675
 30
0.0
 10
486.006514202425
 20
420.2799281914839
 30
0.0
 10
486.1123722787497
 20
420.3068777606766
 30
0.0
 10
486.3041320506689
 20
420.3562700024976
 30
0.0
 10
486.3906963503326
 20
420.3788787225888
 30
0.0
 10
486.6228926971736
 20
420.4404578802184
 30
0.0
 10
486.7417241695775
 20
420.473367263299
 30
0.0
 10
486.9006597379018
 20
420.5208040561473
 30
0.0
 10
486.9400318385155
 20
420.5350807542292
 30
0.0
 10
486.9390307391723
 20
420.5397905563414
 30
0.0
  0
LINE
  5
1CF
330
1F
100
AcDbEntity
  8
0
  6
Continuous
 62
     8
370
     0
100
AcDbLine
 10
434.8602432521
 20
409.3158139463
 30
0.0
 11
480.6914835
 21
419.0575449343
 31
0.0
  0
SPLINE
  5
1D0
330
1F
100
AcDbEntity
  8
0
  6
Continuous
 62
     8
370
     0
100
AcDbSpline
210
0.0
220
0.0
230
1.0
 70
     8
 71
     3
 72
    16
 73
    12
 74
     0
 42
0.00000001
 43
0.00000001
 40
0.0
 40
0.0
 40
0.0
 40
0.0
 40
0.2500000000000014
 40
0.2500000000000014
 40
0.3750000000000022
 40
0.3750000000000022
 40
0.5000000000000029
 40
0.5000000000000029
 40
0.7500000000000014
 40
0.7500000000000014
 40
1.0
 40
1.0
 40
1.0
 40
1.0
 10
432.5725270950607
 20
408.7765509005981
 30
0.0
 10
432.6860952682434
 20
408.8093468231626
 30
0.0
 10
432.8244943149055
 20
408.84631894459
 30
0.0
 10
433.0676886691791
 20
408.9079408889393
 30
0.0
 10
433.1554069576533
 20
408.9296741571517
 30
0.0
 10
433.3383173935896
 20
408.9741152606258
 30
0.0
 10
433.4338430317375
 20
408.9969135388184
 30
0.0
 10
433.7323686566659
 20
409.0670467357263
 30
0.0
 10
433.9501759655735
 20
409.1167519527627
 30
0.0
 10
434.3954523940511
 20
409.2158773683322
 30
0.0
 10
434.6262672421961
 20
409.2660777545672
 30
0.0
 10
434.860243457998
 20
409.3158109345107
 30
0.0
  0
SPLINE
  5
1D1
330
1F
100
AcDbEntity
  8
0
  6
Continuous
 62
     8
370
     0
100
AcDbSpline
210
0.0
220
0.0
230
1.0
 70
     8
 71
     3
 72
    20
 73
    16
 74
     0
 42
0.00000001
 43
0.00000001
 40
0.0
 40
0.0
 40
0.0
 40
0.0
 40
0.125
 40
0.125
 40
0.25
 40
0.25
 40
0.375
 40
0.375
 40
0.5
 40
0.5
 40
0.625
 40
0.625
 40
0.75
 40
0.75
 40
1.0
 40
1.0
 40
1.0
 40
1.0
 10
434.8437535683547
 20
401.6847968012104
 30
0.0
 10
434.7607914420458
 20
401.6656292530398
 30
0.0
 10
434.6746097746019
 20
401.6726895289299
 30
0.0
 10
434.4962498946183
 20
401.7372167561762
 30
0.0
 10
434.4029815107402
 20
401.7957178922879
 30
0.0
 10
434.2165544539649
 20
401.9624413206457
 30
0.0
 10
434.1243051800197
 20
402.0692217865406
 30
0.0
 10
433.943627433093
 20
402.3292890136455
 30
0.0
 10
433.8541981723569
 20
402.4850474915741
 30
0.0
 10
433.6897656599688
 20
402.8316736084248
 30
0.0
 10
433.6140852493493
 20
403.0228248099807
 30
0.0
 10
433.4784692865899
 20
403.4414099381777
 30
0.0
 10
433.4187779105141
 20
403.6696807704769
 30
0.0
 10
433.2758598632736
 20
404.3757568707212
 30
0.0
 10
433.2254850276094
 20
404.8926232067783
 30
0.0
 10
433.2254850276094
 20
405.4125429233746
 30
0.0
  0
SPLINE
  5
1D2
330
1F
100
AcDbEntity
  8
0
  6
Continuous
 62
     8
370
     0
100
AcDbSpline
210
0.0
220
0.0
230
1.0
 70
     8
 71
     3
 72
    10
 73
     6
 74
     0
 42
0.00000001
 43
0.00000001
 40
0.0
 40
0.0
 40
0.0
 40
0.0
 40
0.1355770812015943
 40
0.6153316277674856
 40
1.0
 40
1.0
 40
1.0
 40
1.0
 10
435.5708218874169
 20
403.2304479356292
 30
0.0
 10
435.5518113354635
 20
403.1245991911091
 30
0.0
 10
435.4655298358576
 20
402.644192918268
 30
0.0
 10
435.2524266306814
 20
401.9396211221169
 30
0.0
 10
434.9696080467902
 20
401.7632710195056
 30
0.0
 10
434.843753720237
 20
401.684795188475
 30
0.0
  0
LINE
  5
1D3
330
1F
100
AcDbEntity
  8
0
  6
Continuous
 62
     8
370
     0
100
AcDbLine
 10
433.2254848206
 20
405.4125441785
 30
0.0
 11
433.2254848206
 21
408.1883920904
 31
0.0
  0
SPLINE
  5
1D4
330
1F
100
AcDbEntity
  8
0
  6
Continuous
 62
     8
370
     0
100
AcDbSpline
210
0.0
220
0.0
230
1.0
 70
     8
 71
     3
 72
    18
 73
    14
 74
     0
 42
0.00000001
 43
0.00000001
 40
0.0
 40
0.0
 40
0.0
 40
0.0
 40
0.1249999999999999
 40
0.1249999999999999
 40
0.2499999999999998
 40
0.2499999999999998
 40
0.3749999999999997
 40
0.3749999999999997
 40
0.4999999999999996
 40
0.4999999999999996
 40
0.7499999999999998
 40
0.7499999999999998
 40
1.0
 40
1.0
 40
1.0
 40
1.0
 10
434.9852856144942
 20
405.4125429233746
 30
0.0
 10
434.9574573695063
 20
405.2697911719666
 30
0.0
 10
434.9435262640686
 20
405.1261084088415
 30
0.0
 10
434.9488536349697
 20
404.8418866439347
 30
0.0
 10
434.9678745457638
 20
404.7071062536406
 30
0.0
 10
435.0371399772955
 20
404.4523373354974
 30
0.0
 10
435.0874474841713
 20
404.3347249556482
 30
0.0
 10
435.205662518351
 20
404.1317377634085
 30
0.0
 10
435.2747590610979
 20
404.0432275912668
 30
0.0
 10
435.499297518148
 20
403.8172369694679
 30
0.0
 10
435.6640659381542
 20
403.7231035329958
 30
0.0
 10
436.0008235411522
 20
403.6195352637234
 30
0.0
 10
436.1663706893839
 20
403.6127750726337
 30
0.0
 10
436.327202307002
 20
403.6469608882824
 30
0.0
  0
ARC
  5
1D5
330
1F
100
AcDbEntity
  8
0
  6
Continuous
 62
     8
370
     0
100
AcDbCircle
 10
436.7686484325
 20
401.7713672071
 30
0.0
 40
1.92684051432049
100
AcDbArc
 50
103.2442975766
 51
182.575138732
  0
LWPOLYLINE
  5
1D6
330
1F
100
AcDbEntity
  8
0
  6
Continuous
 62
     8
370
     0
100
AcDbPolyline
 90
        9
 70
   128
 43
0.0
 10
434.9852854149
 20
408.7275310035
 10
434.9614212053
 20
408.8398038025
 10
434.9384333702
 20
408.9479564305
 10
434.9171652222
 20
409.0480177279
 10
434.8983986066
 20
409.136307108
 10
434.8828217709
 20
409.2095910187
 10
434.8710065471
 20
409.26517235
 10
434.8633873971
 20
409.3010170932
 10
434.8602432521
 20
409.3158139463
  0
LINE
  5
1D7
330
1F
100
AcDbEntity
  8
0
  6
Continuous
 62
     8
370
     0
100
AcDbLine
 10
434.9852854149
 20
408.7275310035
 30
0.0
 11
434.9852854149
 21
405.4125441785
 31
0.0
  0
ARC
  5
1D8
330
1F
100
AcDbEntity
  8
0
  6
Continuous
 62
     8
370
     0
100
AcDbCircle
 10
487.0641665978
 20
419.951169112
 30
0.0
 40
0.6017786360845803
100
AcDbArc
 50
12.0013769895
 51
102.0019234222
  0
LINE
  5
1D9
330
1F
100
AcDbEntity
  8
0
  6
Continuous
 62
     8
370
     0
100
AcDbLine
 10
472.6596235061
 20
386.6259089287
 30
0.0
 11
453.7488932485
 21
386.6259089287
 31
0.0
  0
LINE
  5
1DA
330
1F
100
AcDbEntity
  8
0
  6
Continuous
 62
     8
370
     0
100
AcDbLine
 10
473.4695165181
 20
385.2907835122
 30
0.0
 11
452.9390002364
 21
385.2907835122
 31
0.0
  0
LINE
  5
1DB
330
1F
100
AcDbEntity
  8
0
  6
Continuous
 62
     8
370
     0
100
AcDbLine
 10
435.9777535075
 20
382.0708735462
 30
0.0
 11
436.1105181971
 21
382.0698081131
 31
0.0
  0
LINE
  5
1DC
330
1F
100
AcDbEntity
  8
0
  6
Continuous
 62
     8
370
     0
100
AcDbLine
 10
436.1395410025
 20
385.6847366865
 30
0.0
 11
435.9777535075
 21
385.6860368128
 31
0.0
  0
SPLINE
  5
1DD
330
1F
100
AcDbEntity
  8
0
  6
Continuous
 62
     8
370
     0
100
AcDbSpline
210
0.0
220
0.0
230
1.0
 70
    24
 71
     3
 72
     8
 73
     4
 74
     0
 42
0.00000001
 43
0.00000001
 40
0.0
 40
0.0
 40
0.0
 40
0.0
 40
1.0
 40
1.0
 40
1.0
 40
1.0
 10
428.0992370733791
 20
321.1472523771855
 30
0.0
 10
428.0983158321849
 20
321.1457238845587
 30
0.0
 10
428.1001978581133
 20
321.1488464790838
 30
0.0
 10
428.0992464994459
 20
321.1472680166059
 30
0.0
  0
SPLINE
  5
1DE
330
1F
100
AcDbEntity
  8
0
  6
Continuous
 62
     7
370
    15
100
AcDbSpline
210
0.0
220
0.0
230
1.0
 70
     8
 71
     3
 72
    14
 73
    10
 74
     0
 42
0.00000001
 43
0.00000001
 40
0.0
 40
0.0
 40
0.0
 40
0.0
 40
0.1319768943316435
 40
0.2924369781552018
 40
0.4530473066633955
 40
0.6138729645283326
 40
0.7749437822432548
 40
0.9362537752789252
 40
1.0
 40
1.0
 40
1.0
 40
1.0
 10
186.1034181388177
 20
138.4626734316814
 30
0.0
 10
186.2428483077844
 20
138.1171294606062
 30
0.0
 10
186.5518003973358
 20
137.3514663857724
 30
0.0
 10
187.3181578633696
 20
136.3113566641748
 30
0.0
 10
188.3104679694049
 20
135.3690639112428
 30
0.0
 10
189.4773655317081
 20
134.6376299577562
 30
0.0
 10
190.7653396807771
 20
134.1453926852955
 30
0.0
 10
191.8539263926033
 20
133.9485188609992
 30
0.0
 10
192.4936730974485
 20
133.9335658047208
 30
0.0
 10
192.6748786540784
 20
133.9293304145801
 30
0.0
  0
SPLINE
  5
1DF
330
1F
100
AcDbEntity
  8
0
  6
Continuous
 62
     7
370
    15
100
AcDbSpline
210
0.0
220
0.0
230
1.0
 70
     8
 71
     3
 72
    14
 73
    10
 74
     0
 42
0.00000001
 43
0.00000001
 40
0.0
 40
0.0
 40
0.0
 40
0.0
 40
0.0956889733482657
 40
0.251789278378124
 40
0.4080776461103614
 40
0.5643104510430874
 40
0.7204053404526419
 40
0.8762964651065642
 40
1.0
 40
1.0
 40
1.0
 40
1.0
 10
198.6928783776321
 20
133.9293304145801
 30
0.0
 10
198.9743625386562
 20
133.9392849499297
 30
0.0
 10
199.7150402917885
 20
133.9654786186938
 30
0.0
 10
200.8948299515859
 20
134.2333185492214
 30
0.0
 10
202.1641794478556
 20
134.7813063184471
 30
0.0
 10
203.3026985385847
 20
135.5669868034092
 30
0.0
 10
204.2552942108041
 20
136.558070291755
 30
0.0
 10
204.9694913088365
 20
137.6263620725853
 30
0.0
 10
205.2387233426938
 20
138.3969852415412
 30
0.0
 10
205.3578420495697
 20
138.7379388571251
 30
0.0
  0
LINE
  5
1E0
330
1F
100
AcDbEntity
  8
0
  6
Continuous
 62
     7
370
    15
100
AcDbLine
 10
192.6748786541
 20
133.9293304146
 30
0.0
 11
198.6928783776
 21
133.9293304146
 31
0.0
  0
ARC
  5
1E1
330
1F
100
AcDbEntity
  8
0
  6
Continuous
 62
     7
370
    15
100
AcDbCircle
 10
195.6838785798
 20
159.127172383
 30
0.0
 40
10.28075000000002
100
AcDbArc
 50
347.3196165082
 51
12.6803834918
  0
ARC
  5
1E2
330
1F
100
AcDbEntity
  8
0
  6
Continuous
 62
     7
370
    15
100
AcDbCircle
 10
195.6838785798
 20
159.127172383
 30
0.0
 40
10.28074999999998
100
AcDbArc
 50
167.3196165082
 51
192.6803834918
  0
ARC
  5
1E3
330
1F
100
AcDbEntity
  8
0
  6
Continuous
 62
     7
370
    15
100
AcDbCircle
 10
239.1117061991
 20
233.2510445987
 30
0.0
 40
3.008999999999995
100
AcDbArc
 50
181.0588103613
 51
242.7519034398
  0
ARC
  5
1E4
330
1F
100
AcDbEntity
  8
0
  6
Continuous
 62
     7
370
    15
100
AcDbCircle
 10
302.7060509605
 20
233.2510445987
 30
0.0
 40
3.008999999999967
100
AcDbArc
 50
297.0350783715
 51
358.9411896387
  0
ARC
  5
1E5
330
1F
100
AcDbEntity
  8
0
  6
Continuous
 62
     7
370
    15
100
AcDbCircle
 10
88.6617061991
 20
233.2510446466
 30
0.0
 40
3.009000000000026
100
AcDbArc
 50
181.0588103613
 51
242.7519034398
  0
ARC
  5
1E6
330
1F
100
AcDbEntity
  8
0
  6
Continuous
 62
     7
370
    15
100
AcDbCircle
 10
152.2560509605
 20
233.2510446466
 30
0.0
 40
3.009000000000017
100
AcDbArc
 50
297.0350783715
 51
358.9411896387
  0
LINE
  5
1E7
330
1F
100
AcDbEntity
  8
0
  6
Continuous
 62
     7
370
    15
100
AcDbLine
 10
235.7482981356
 20
250.9062285781
 30
0.0
 11
236.1032214435
 21
233.1954422653
 31
0.0
  0
LINE
  5
1E8
330
1F
100
AcDbEntity
  8
0
  6
Continuous
 62
     7
370
    15
100
AcDbLine
 10
305.7145361276
 20
233.1954422653
 30
0.0
 11
306.0694594355
 21
250.9062285781
 31
0.0
  0
LINE
  5
1E9
330
1F
100
AcDbEntity
  8
0
  6
Continuous
 62
     7
370
    15
100
AcDbLine
 10
85.2982957335
 20
250.9062285781
 30
0.0
 11
85.6532190414
 21
233.1954422653
 31
0.0
  0
LINE
  5
1EA
330
1F
100
AcDbEntity
  8
0
  6
Continuous
 62
     7
370
    15
100
AcDbLine
 10
155.2645374509
 20
233.1954422653
 30
0.0
 11
155.6194570335
 21
250.9062285781
 31
0.0
  0
ARC
  5
1EB
330
1F
100
AcDbEntity
  8
0
  6
Continuous
 62
     7
370
    15
100
AcDbCircle
 10
270.9023713881
 20
294.9177247886
 30
0.0
 40
72.38795108347485
100
AcDbArc
 50
242.7269861238
 51
256.6523329408
  0
ARC
  5
1EC
330
1F
100
AcDbEntity
  8
0
  6
Continuous
 62
     7
370
    15
100
AcDbCircle
 10
270.9023713881
 20
294.9177247886
 30
0.0
 40
72.38795108347482
100
AcDbArc
 50
283.3478079474
 51
297.2728748476
  0
ARC
  5
1ED
330
1F
100
AcDbEntity
  8
0
  6
Continuous
 62
     7
370
    15
100
AcDbCircle
 10
120.4523713881
 20
294.9177248366
 30
0.0
 40
72.38795108347483
100
AcDbArc
 50
242.7269861238
 51
256.6523329408
  0
ARC
  5
1EE
330
1F
100
AcDbEntity
  8
0
  6
Continuous
 62
     7
370
    15
100
AcDbCircle
 10
120.4523713881
 20
294.9177248366
 30
0.0
 40
72.38795108347485
100
AcDbArc
 50
283.3478079474
 51
297.2728748476
  0
SPLINE
  5
1EF
330
1F
100
AcDbEntity
  8
0
  6
Continuous
 62
     7
370
    15
100
AcDbSpline
210
0.0
220
0.0
230
1.0
 70
     8
 71
     3
 72
    11
 73
     7
 74
     0
 42
0.00000001
 43
0.00000001
 40
0.0
 40
0.0
 40
0.0
 40
0.0
 40
0.1015948531101595
 40
0.3639591632530946
 40
0.6775605759566702
 40
1.0
 40
1.0
 40
1.0
 40
1.0
 10
105.7963256212034
 20
205.9419066891539
 30
0.0
 10
105.6705260187344
 20
205.5488699931261
 30
0.0
 10
105.2198543887204
 20
204.1408330440597
 30
0.0
 10
105.0255539703106
 20
201.4764492251878
 30
0.0
 10
104.9459252858768
 20
198.0114549808949
 30
0.0
 10
104.9559856538181
 20
195.5038504342749
 30
0.0
 10
104.9610857339658
 20
194.232626136986
 30
0.0
  0
SPLINE
  5
1F0
330
1F
100
AcDbEntity
  8
0
  6
Continuous
 62
     7
370
    15
100
AcDbSpline
210
0.0
220
0.0
230
1.0
 70
     8
 71
     3
 72
    11
 73
     7
 74
     0
 42
0.00000001
 43
0.00000001
 40
0.0
 40
0.0
 40
0.0
 40
0.0
 40
0.3677008943779576
 40
0.7207203034879536
 40
0.8785582312585628
 40
1.0
 40
1.0
 40
1.0
 40
1.0
 10
286.4062149496831
 20
194.2326372692012
 30
0.0
 10
286.4081955932125
 20
195.5192640910732
 30
0.0
 10
286.412077797546
 20
198.0411455651557
 30
0.0
 10
286.3560087555948
 20
200.9082209999048
 30
0.0
 10
286.2574013606692
 20
202.7970979624147
 30
0.0
 10
286.1092579889662
 20
203.7280008603272
 30
0.0
 10
286.0448394389906
 20
204.1327939615119
 30
0.0
  0
ARC
  5
1F1
330
1F
100
AcDbEntity
  8
0
  6
Continuous
 62
     7
370
    15
100
AcDbCircle
 10
255.5822442496
 20
230.3447150502
 30
0.0
 40
6.022542689417785
100
AcDbArc
 50
256.637399313
 51
270.0000056709
  0
ARC
  5
1F2
330
1F
100
AcDbEntity
  8
0
  6
Continuous
 62
     7
370
    15
100
AcDbCircle
 10
286.2355129099
 20
230.3447150502
 30
0.0
 40
6.022542689417759
100
AcDbArc
 50
269.9999943291
 51
283.2367846891
  0
ARC
  5
1F3
330
1F
100
AcDbEntity
  8
0
  6
Continuous
 62
     7
370
    15
100
AcDbCircle
 10
105.1322442496
 20
230.3447150982
 30
0.0
 40
6.022542689417326
100
AcDbArc
 50
256.637399313
 51
270.0000056709
  0
ARC
  5
1F4
330
1F
100
AcDbEntity
  8
0
  6
Continuous
 62
     7
370
    15
100
AcDbCircle
 10
135.7855129099
 20
230.3447150982
 30
0.0
 40
6.022542689417331
100
AcDbArc
 50
269.9999943291
 51
283.2367846891
  0
ARC
  5
1F5
330
1F
100
AcDbEntity
  8
0
  6
Continuous
 62
     7
370
    15
100
AcDbCircle
 10
260.8788785796
 20
220.3416395133
 30
0.0
 40
6.017999999875363
100
AcDbArc
 50
138.5903778903
 51
180.0000000009
  0
ARC
  5
1F6
330
1F
100
AcDbEntity
  8
0
  6
Continuous
 62
     7
370
    15
100
AcDbCircle
 10
280.9388785799
 20
220.3416395133
 30
0.0
 40
6.017999999875404
100
AcDbArc
 50
359.9999999991
 51
41.4096221097
  0
ARC
  5
1F7
330
1F
100
AcDbEntity
  8
0
  6
Continuous
 62
     7
370
    15
100
AcDbCircle
 10
110.4288785796
 20
220.3416395134
 30
0.0
 40
6.017999999875394
100
AcDbArc
 50
138.5903778903
 51
180.0000000009
  0
ARC
  5
1F8
330
1F
100
AcDbEntity
  8
0
  6
Continuous
 62
     7
370
    15
100
AcDbCircle
 10
130.4888785799
 20
220.3416395134
 30
0.0
 40
6.017999999875383
100
AcDbArc
 50
359.9999999991
 51
41.4096221097
  0
ARC
  5
1F9
330
1F
100
AcDbEntity
  8
0
  6
Continuous
 62
     7
370
    15
100
AcDbCircle
 10
260.8788785798
 20
211.2517052083
 30
0.0
 40
6.018000000000081
100
AcDbArc
 50
180.0
 51
221.4096221093
  0
ARC
  5
1FA
330
1F
100
AcDbEntity
  8
0
  6
Continuous
 62
     7
370
    15
100
AcDbCircle
 10
280.9388785798
 20
211.2517052083
 30
0.0
 40
6.018000000000081
100
AcDbArc
 50
318.5903778907
 51
360.0
  0
ARC
  5
1FB
330
1F
100
AcDbEntity
  8
0
  6
Continuous
 62
     7
370
    15
100
AcDbCircle
 10
110.4288785798
 20
211.2517052083
 30
0.0
 40
6.0180000000001
100
AcDbArc
 50
180.0
 51
221.4096221093
  0
ARC
  5
1FC
330
1F
100
AcDbEntity
  8
0
  6
Continuous
 62
     7
370
    15
100
AcDbCircle
 10
130.4888785798
 20
211.2517052083
 30
0.0
 40
6.0180000000001
100
AcDbArc
 50
318.5903778907
 51
360.0
  0
SPLINE
  5
1FD
330
1F
100
AcDbEntity
  8
0
  6
Continuous
 62
     7
370
    15
100
AcDbSpline
210
0.0
220
0.0
230
1.0
 70
     8
 71
     3
 72
     9
 73
     5
 74
     0
 42
0.00000001
 43
0.00000001
 40
0.0
 40
0.0
 40
0.0
 40
0.0
 40
0.4997981709928341
 40
1.0
 40
1.0
 40
1.0
 40
1.0
 10
105.9697751374998
 20
206.1780379400122
 30
0.0
 10
105.9403028854574
 20
206.1439620701374
 30
0.0
 10
105.8813345783428
 20
206.0757828092827
 30
0.0
 10
105.9974799142183
 20
206.0026003941329
 30
0.0
 10
106.055576023654
 20
205.9659944162238
 30
0.0
  0
SPLINE
  5
1FE
330
1F
100
AcDbEntity
  8
0
  6
Continuous
 62
     7
370
    15
100
AcDbSpline
210
0.0
220
0.0
230
1.0
 70
     8
 71
     3
 72
     9
 73
     5
 74
     0
 42
0.00000001
 43
0.00000001
 40
0.0
 40
0.0
 40
0.0
 40
0.0
 40
0.5002018290071659
 40
1.0
 40
1.0
 40
1.0
 40
1.0
 10
285.3121791454114
 20
205.9659944162238
 30
0.0
 10
285.3702752548471
 20
206.0026003941329
 30
0.0
 10
285.4864205907226
 20
206.0757828092827
 30
0.0
 10
285.427452283608
 20
206.1439620701374
 30
0.0
 10
285.3979800315656
 20
206.1780379400122
 30
0.0
  0
LINE
  5
1FF
330
1F
100
AcDbEntity
  8
0
  6
Continuous
 62
     7
370
    15
100
AcDbLine
 10
260.377376941
 20
207.271172224
 30
0.0
 11
260.377376941
 21
206.2681722701
 31
0.0
  0
LINE
  5
200
330
1F
100
AcDbEntity
  8
0
  6
Continuous
 62
     7
370
    15
100
AcDbLine
 10
281.4403806301
 20
206.2681722701
 30
0.0
 11
281.4403806301
 21
207.271172224
 31
0.0
  0
LINE
  5
201
330
1F
100
AcDbEntity
  8
0
  6
Continuous
 62
     7
370
    15
100
AcDbLine
 10
109.9273819896
 20
207.271172224
 30
0.0
 11
109.9273819896
 21
206.2681722701
 31
0.0
  0
LINE
  5
202
330
1F
100
AcDbEntity
  8
0
  6
Continuous
 62
     7
370
    15
100
AcDbLine
 10
130.9903819533
 20
206.2681722701
 30
0.0
 11
130.9903819533
 21
207.271172224
 31
0.0
  0
LINE
  5
203
330
1F
100
AcDbEntity
  8
0
  6
Continuous
 62
     7
370
    15
100
AcDbLine
 10
214.0605874779
 20
107.9740445376
 30
0.0
 11
214.0609432431
 21
108.0156336785
 31
0.0
  0
LINE
  5
204
330
1F
100
AcDbEntity
  8
0
  6
Continuous
 62
     7
370
    15
100
AcDbLine
 10
177.3059700104
 20
108.1136535168
 30
0.0
 11
177.3071676912
 21
107.9740445376
 31
0.0
  0
LINE
  5
205
330
1F
100
AcDbEntity
  8
0
  6
Continuous
 62
     7
370
    15
100
AcDbLine
 10
286.455381331
 20
188.1138724521
 30
0.0
 11
286.455381331
 21
194.2397416979
 31
0.0
  0
LINE
  5
206
330
1F
100
AcDbEntity
  8
0
  6
Continuous
 62
     7
370
    15
100
AcDbLine
 10
104.9123812886
 20
194.2397416979
 30
0.0
 11
104.9123812886
 21
188.1138724521
 31
0.0
  0
ARC
  5
207
330
1F
100
AcDbEntity
  8
0
  6
Continuous
 62
     7
370
    15
100
AcDbCircle
 10
284.5496785798
 20
188.113872383
 30
0.0
 40
1.905700000000024
100
AcDbArc
 50
270.0
 51
0.0
  0
ARC
  5
208
330
1F
100
AcDbEntity
  8
0
  6
Continuous
 62
     7
370
    15
100
AcDbCircle
 10
106.8180785798
 20
188.113872383
 30
0.0
 40
1.90570000000001
100
AcDbArc
 50
180.0
 51
270.0
  0
LINE
  5
209
330
1F
100
AcDbEntity
  8
0
  6
Continuous
 62
     7
370
    15
100
AcDbLine
 10
254.8608776601
 20
220.3416391522
 30
0.0
 11
254.8608776601
 21
211.2517054439
 31
0.0
  0
LINE
  5
20A
330
1F
100
AcDbEntity
  8
0
  6
Continuous
 62
     7
370
    15
100
AcDbLine
 10
286.956879911
 20
211.2517054439
 30
0.0
 11
286.956879911
 21
220.3416391522
 31
0.0
  0
LINE
  5
20B
330
1F
100
AcDbEntity
  8
0
  6
Continuous
 62
     7
370
    15
100
AcDbLine
 10
104.410875258
 20
220.3416391522
 30
0.0
 11
104.410875258
 21
211.2517054439
 31
0.0
  0
LINE
  5
20C
330
1F
100
AcDbEntity
  8
0
  6
Continuous
 62
     7
370
    15
100
AcDbLine
 10
136.5068812342
 20
211.2517054439
 30
0.0
 11
136.5068812342
 21
220.3416391522
 31
0.0
  0
ARC
  5
20D
330
1F
100
AcDbEntity
  8
0
  6
Continuous
 62
     7
370
    15
100
AcDbCircle
 10
198.7784697325
 20
140.9083764411
 30
0.0
 40
6.935738681169958
100
AcDbArc
 50
269.2929162846
 51
359.4412689602
  0
LINE
  5
20E
330
1F
100
AcDbEntity
  8
0
  6
Continuous
 62
     7
370
    15
100
AcDbLine
 10
205.7138786372
 20
140.840742296
 30
0.0
 11
205.7138786372
 21
141.514904356
 31
0.0
  0
ARC
  5
20F
330
1F
100
AcDbEntity
  8
0
  6
Continuous
 62
     7
370
    15
100
AcDbCircle
 10
192.5976099164
 20
140.9168853414
 30
0.0
 40
6.944149340409932
100
AcDbArc
 50
180.6282645076
 51
270.637553097
  0
LINE
  5
210
330
1F
100
AcDbEntity
  8
0
  6
Continuous
 62
     7
370
    15
100
AcDbLine
 10
185.6538780453
 20
140.840742296
 30
0.0
 11
185.6538780453
 21
141.514904356
 31
0.0
  0
LINE
  5
211
330
1F
100
AcDbEntity
  8
0
  6
Continuous
 62
     7
370
    15
100
AcDbLine
 10
185.6538780453
 20
141.514904356
 30
0.0
 11
185.6538780453
 21
187.3461455353
 31
0.0
  0
LINE
  5
212
330
1F
100
AcDbEntity
  8
0
  6
Continuous
 62
     7
370
    15
100
AcDbLine
 10
205.7138786372
 20
187.3461455353
 30
0.0
 11
205.7138786372
 21
141.514904356
 31
0.0
  0
SPLINE
  5
213
330
1F
100
AcDbEntity
  8
0
  6
Continuous
 62
     7
370
    15
100
AcDbSpline
210
0.0
220
0.0
230
1.0
 70
     8
 71
     3
 72
   100
 73
    96
 74
     0
 42
0.00000001
 43
0.00000001
 40
0.0
 40
0.0
 40
0.0
 40
0.0
 40
0.03125
 40
0.03125
 40
0.0625000000000001
 40
0.0625000000000001
 40
0.0781250000000001
 40
0.0781250000000001
 40
0.0937500000000001
 40
0.0937500000000001
 40
0.1250000000000002
 40
0.1250000000000002
 40
0.1406250000000002
 40
0.1406250000000002
 40
0.1562500000000002
 40
0.1562500000000002
 40
0.1875000000000001
 40
0.1875000000000001
 40
0.2031250000000002
 40
0.2031250000000002
 40
0.2187500000000001
 40
0.2187500000000001
 40
0.2500000000000001
 40
0.2500000000000001
 40
0.2656250000000001
 40
0.2656250000000001
 40
0.2812500000000001
 40
0.2812500000000001
 40
0.3125
 40
0.3125
 40
0.328125
 40
0.328125
 40
0.3437499999999999
 40
0.3437499999999999
 40
0.3749999999999999
 40
0.3749999999999999
 40
0.3906249999999999
 40
0.3906249999999999
 40
0.40625
 40
0.40625
 40
0.4374999999999999
 40
0.4374999999999999
 40
0.4531249999999999
 40
0.4531249999999999
 40
0.4687499999999998
 40
0.4687499999999998
 40
0.4999999999999998
 40
0.4999999999999998
 40
0.5156249999999998
 40
0.5156249999999998
 40
0.5312499999999998
 40
0.5312499999999998
 40
0.5624999999999999
 40
0.5624999999999999
 40
0.5781249999999999
 40
0.5781249999999999
 40
0.5937499999999999
 40
0.5937499999999999
 40
0.6249999999999999
 40
0.6249999999999999
 40
0.640625
 40
0.640625
 40
0.65625
 40
0.65625
 40
0.6875000000000001
 40
0.6875000000000001
 40
0.7031250000000001
 40
0.7031250000000001
 40
0.7187500000000002
 40
0.7187500000000002
 40
0.7500000000000003
 40
0.7500000000000003
 40
0.7656250000000003
 40
0.7656250000000003
 40
0.7812500000000003
 40
0.7812500000000003
 40
0.8125000000000002
 40
0.8125000000000002
 40
0.8281250000000001
 40
0.8281250000000001
 40
0.84375
 40
0.84375
 40
0.8749999999999999
 40
0.8749999999999999
 40
0.890625
 40
0.890625
 40
0.90625
 40
0.90625
 40
0.9374999999999999
 40
0.9374999999999999
 40
0.9531249999999999
 40
0.9531249999999999
 40
0.96875
 40
0.96875
 40
1.0
 40
1.0
 40
1.0
 40
1.0
 10
184.6107585797724
 20
189.105945922615
 30
0.0
 10
183.4827350666134
 20
189.7231472626107
 30
0.0
 10
182.4251877725521
 20
190.4234204569744
 30
0.0
 10
180.4423907859646
 20
191.9809017717965
 30
0.0
 10
179.5171754499943
 20
192.8381456548395
 30
0.0
 10
178.2306775991856
 20
194.2450315667191
 30
0.0
 10
177.8222022411021
 20
194.7307989269377
 30
0.0
 10
177.0519253051567
 20
195.7265570428243
 30
0.0
 10
176.6889221500142
 20
196.2378529352291
 30
0.0
 10
175.6650725840191
 20
197.8114131010313
 30
0.0
 10
175.0689354439875
 20
198.9130781210165
 30
0.0
 10
174.3075566041143
 20
200.6470946727466
 30
0.0
 10
174.0769831426657
 20
201.2371823815344
 30
0.0
 10
173.6681201916278
 20
202.4241748308181
 30
0.0
 10
173.4887444256666
 20
203.023465052431
 30
0.0
 10
173.0246052488523
 20
204.8385382708848
 30
0.0
 10
172.8133245335015
 20
206.0714138098544
 30
0.0
 10
172.648003504254
 20
207.9562170360367
 30
0.0
 10
172.6184981149307
 20
208.5921347852341
 30
0.0
 10
172.6118917952192
 20
209.8535359281499
 30
0.0
 10
172.6344243528179
 20
210.4815776579368
 30
0.0
 10
172.7782633221609
 20
212.3578458322414
 30
0.0
 10
172.9753024419844
 20
213.5982762172663
 30
0.0
 10
173.4267170947238
 20
215.4426809803269
 30
0.0
 10
173.604326431823
 20
216.0576300196894
 30
0.0
 10
174.0082481052646
 20
217.2652155488179
 30
0.0
 10
174.234126080848
 20
217.8575662801847
 30
0.0
 10
174.9820253150784
 20
219.600914352781
 30
0.0
 10
175.5738500746555
 20
220.7184347514254
 30
0.0
 10
176.6039680918663
 20
222.3259796967285
 30
0.0
 10
176.9724207592966
 20
222.8519094961111
 30
0.0
 10
177.753373890612
 20
223.8725431246519
 30
0.0
 10
178.1627998258717
 20
224.3635238499026
 30
0.0
 10
179.4464489044594
 20
225.7798480396113
 30
0.0
 10
180.3756772762015
 20
226.6489487952486
 30
0.0
 10
181.8806593866391
 20
227.8384840017624
 30
0.0
 10
182.4015283076465
 20
228.2162763410849
 30
0.0
 10
183.4793803927616
 20
228.9305609759998
 30
0.0
 10
184.0297104881432
 20
229.2627159220158
 30
0.0
 10
185.7138966383213
 20
230.1863500928268
 30
0.0
 10
186.8807257024399
 20
230.705484550621
 30
0.0
 10
188.6971950916144
 20
231.3385649252314
 30
0.0
 10
189.3138108789758
 20
231.5252092115724
 30
0.0
 10
190.5698409864096
 20
231.8480040851048
 30
0.0
 10
191.2002157818185
 20
231.9818341750214
 30
0.0
 10
193.0981967969277
 20
232.3031810239553
 30
0.0
 10
194.3726132132827
 20
232.4110918463963
 30
0.0
 10
196.2978815037158
 20
232.4134080431256
 30
0.0
 10
196.9419231467572
 20
232.387454158456
 30
0.0
 10
198.234726167282
 20
232.2803621061157
 30
0.0
 10
198.8745729355039
 20
232.1999443827357
 30
0.0
 10
200.7731877059153
 20
231.8808453676144
 30
0.0
 10
202.0120211641209
 20
231.5647666855704
 30
0.0
 10
203.8299619470548
 20
230.9360406978653
 30
0.0
 10
204.4291897476963
 20
230.7005672041966
 30
0.0
 10
205.6137142891329
 20
230.1762384103257
 30
0.0
 10
206.1910619373556
 20
229.8908730051281
 30
0.0
 10
207.8772474162943
 20
228.9686911574343
 30
0.0
 10
208.9416875827837
 20
228.2657097493588
 30
0.0
 10
210.449171968812
 20
227.0798759954673
 30
0.0
 10
210.9367295324587
 20
226.6625949163883
 30
0.0
 10
211.8810874707827
 20
225.7828024915823
 30
0.0
 10
212.3317735297915
 20
225.3259392258799
 30
0.0
 10
213.6187450974792
 20
223.9089483793172
 30
0.0
 10
214.3916237453194
 20
222.9015451170949
 30
0.0
 10
215.4243538256907
 20
221.2975956196066
 30
0.0
 10
215.7473951854411
 20
220.7473946001301
 30
0.0
 10
216.3499508683264
 20
219.6151415959132
 30
0.0
 10
216.6258953107032
 20
219.0396720847681
 30
0.0
 10
217.3774180612771
 20
217.2920795995633
 30
0.0
 10
217.778524119749
 20
216.096377258206
 30
0.0
 10
218.2322370759658
 20
214.257791721149
 30
0.0
 10
218.3586962697821
 20
213.6373859854675
 30
0.0
 10
218.5608762530914
 20
212.3811648938429
 30
0.0
 10
218.6355842349172
 20
211.7508807272057
 30
0.0
 10
218.7813284938474
 20
209.8667989530331
 30
0.0
 10
218.7754119986715
 20
208.6141434598901
 30
0.0
 10
218.614072367607
 20
206.7401822122038
 30
0.0
 10
218.5347560889963
 20
206.1163674819072
 30
0.0
 10
218.3238484576687
 20
204.8704282680359
 30
0.0
 10
218.1924295411183
 20
204.2507205559432
 30
0.0
 10
217.7270129503664
 20
202.425904498831
 30
0.0
 10
217.3207927545958
 20
201.245099988145
 30
0.0
 10
216.5691113369797
 20
199.5264852558863
 30
0.0
 10
216.2947065673822
 20
198.9624215314535
 30
0.0
 10
215.6969808889042
 20
197.8522677992798
 30
0.0
 10
215.3727646529291
 20
197.3052435464026
 30
0.0
 10
214.3433743288177
 20
195.7205454021835
 30
0.0
 10
213.5770884468609
 20
194.7290226065651
 30
0.0
 10
212.3085606089695
 20
193.3376347097594
 30
0.0
 10
211.8657673519885
 20
192.8899026026384
 30
0.0
 10
210.9391756866737
 20
192.0273214854605
 30
0.0
 10
210.4534286860719
 20
191.6110209133782
 30
0.0
 10
208.9493744387419
 20
190.4271600184624
 30
0.0
 10
207.8849065694801
 20
189.7230840536192
 30
0.0
 10
206.7569985797724
 20
189.1059459226152
 30
0.0
  0
SPLINE
  5
214
330
1F
100
AcDbEntity
  8
0
  6
Continuous
 62
     7
370
    15
100
AcDbSpline
210
0.0
220
0.0
230
1.0
 70
     8
 71
     3
 72
    14
 73
    10
 74
     0
 42
0.00000001
 43
0.00000001
 40
0.0
 40
0.0
 40
0.0
 40
0.0
 40
0.25
 40
0.25
 40
0.5
 40
0.5
 40
0.75
 40
0.75
 40
1.0
 40
1.0
 40
1.0
 40
1.0
 10
206.7569985797724
 20
189.1059459226152
 30
0.0
 10
206.5959642429175
 20
189.0178355177055
 30
0.0
 10
206.4517589517687
 20
188.9107488879758
 30
0.0
 10
206.194647433474
 20
188.6613569601424
 30
0.0
 10
206.0817169849861
 20
188.5174966098766
 30
0.0
 10
205.901258336028
 20
188.2111641951317
 30
0.0
 10
205.8309477566368
 20
188.044415040776
 30
0.0
 10
205.7375876458351
 20
187.701339492223
 30
0.0
 10
205.7138785797724
 20
187.5258021283206
 30
0.0
 10
205.7138785797724
 20
187.3461453357304
 30
0.0
  0
SPLINE
  5
215
330
1F
100
AcDbEntity
  8
0
  6
Continuous
 62
     7
370
    15
100
AcDbSpline
210
0.0
220
0.0
230
1.0
 70
     8
 71
     3
 72
    14
 73
    10
 74
     0
 42
0.00000001
 43
0.00000001
 40
0.0
 40
0.0
 40
0.0
 40
0.0
 40
0.25
 40
0.25
 40
0.5
 40
0.5
 40
0.75
 40
0.75
 40
1.0
 40
1.0
 40
1.0
 40
1.0
 10
185.6538785797724
 20
187.3461453357302
 30
0.0
 10
185.6538785797724
 20
187.5255479613977
 30
0.0
 10
185.6298923102694
 20
187.7025055569243
 30
0.0
 10
185.5368558765176
 20
188.0440964855318
 30
0.0
 10
185.4664440776303
 20
188.2112586854192
 30
0.0
 10
185.2860858564713
 20
188.5174175057999
 30
0.0
 10
185.1740161024311
 20
188.6603986132659
 30
0.0
 10
184.9160005493698
 20
188.9108255221595
 30
0.0
 10
184.7715507934915
 20
189.0179679960819
 30
0.0
 10
184.6107585797724
 20
189.105945922615
 30
0.0
  0
LINE
  5
216
330
1F
100
AcDbEntity
  8
0
  6
Continuous
 62
     7
370
     0
100
AcDbLine
 10
236.1032214435
 20
233.1954422653
 30
0.0
 11
305.7145361276
 21
233.1954422653
 31
0.0
  0
LINE
  5
217
330
1F
100
AcDbEntity
  8
0
  6
Continuous
 62
     7
370
     0
100
AcDbLine
 10
85.6532190414
 20
233.1954422653
 30
0.0
 11
155.2645374509
 21
233.1954422653
 31
0.0
  0
LINE
  5
218
330
1F
100
AcDbEntity
  8
0
  6
Continuous
 62
     7
370
    15
100
AcDbLine
 10
306.0694594355
 20
250.9062285781
 30
0.0
 11
235.7482981356
 21
250.9062285781
 31
0.0
  0
LINE
  5
219
330
1F
100
AcDbEntity
  8
0
  6
Continuous
 62
     7
370
    15
100
AcDbLine
 10
155.6194570335
 20
250.9062285781
 30
0.0
 11
85.2982957335
 21
250.9062285781
 31
0.0
  0
SPLINE
  5
21A
330
1F
100
AcDbEntity
  8
0
  6
Continuous
 62
     7
370
    15
100
AcDbSpline
210
0.0
220
0.0
230
1.0
 70
     8
 71
     3
 72
     9
 73
     5
 74
     0
 42
0.00000001
 43
0.00000001
 40
0.0
 40
0.0
 40
0.0
 40
0.0
 40
0.5050780369239464
 40
1.0
 40
1.0
 40
1.0
 40
1.0
 10
172.6522796650539
 20
210.5553086199111
 30
0.0
 10
172.65464521486
 20
210.6104433257179
 30
0.0
 10
172.659328748162
 20
210.7196040925225
 30
0.0
 10
172.6667744974308
 20
210.8282611495616
 30
0.0
 10
172.6704595622755
 20
210.8820379135334
 30
0.0
  0
LINE
  5
21B
330
1F
100
AcDbEntity
  8
0
  6
Continuous
 62
     7
370
    15
100
AcDbLine
 10
172.67075893
 20
210.8818567604
 30
0.0
 11
172.7110330435
 21
211.3812561393
 31
0.0
  0
LINE
  5
21C
330
1F
100
AcDbEntity
  8
0
  6
Continuous
 62
     7
370
    15
100
AcDbLine
 10
218.5642539011
 20
212.2211843044
 30
0.0
 11
218.6969999643
 21
210.8818567604
 31
0.0
  0
SPLINE
  5
21D
330
1F
100
AcDbEntity
  8
0
  6
Continuous
 62
     7
370
    15
100
AcDbSpline
210
0.0
220
0.0
230
1.0
 70
     8
 71
     3
 72
     8
 73
     4
 74
     0
 42
0.00000001
 43
0.00000001
 40
0.0
 40
0.0
 40
0.0
 40
0.0
 40
1.0
 40
1.0
 40
1.0
 40
1.0
 10
218.7151228080791
 20
210.5550954791351
 30
0.0
 10
218.7106294770976
 20
210.6640944298355
 30
0.0
 10
218.7045882402423
 20
210.7730295564299
 30
0.0
 10
218.6969998130074
 20
210.8818568081844
 30
0.0
  0
SPLINE
  5
21E
330
1F
100
AcDbEntity
  8
0
  6
Continuous
 62
     7
370
    15
100
AcDbSpline
210
0.0
220
0.0
230
1.0
 70
     8
 71
     3
 72
     9
 73
     5
 74
     0
 42
0.00000001
 43
0.00000001
 40
0.0
 40
0.0
 40
0.0
 40
0.0
 40
0.7294035552804554
 40
1.0
 40
1.0
 40
1.0
 40
1.0
 10
104.9123663874426
 20
194.232182219898
 30
0.0
 10
104.8910160016921
 20
195.905757426269
 30
0.0
 10
104.861744982109
 20
198.2002008715406
 30
0.0
 10
105.0082783051545
 20
200.4891141540561
 30
0.0
 10
105.0479297014036
 20
201.1084859505761
 30
0.0
  0
SPLINE
  5
21F
330
1F
100
AcDbEntity
  8
0
  6
Continuous
 62
     7
370
    15
100
AcDbSpline
210
0.0
220
0.0
230
1.0
 70
     8
 71
     3
 72
     9
 73
     5
 74
     0
 42
0.00000001
 43
0.00000001
 40
0.0
 40
0.0
 40
0.0
 40
0.0
 40
0.7605847122041495
 40
1.0
 40
1.0
 40
1.0
 40
1.0
 10
286.4553887816228
 20
194.232182219898
 30
0.0
 10
286.4780692963419
 20
195.9057991985663
 30
0.0
 10
286.5078891367294
 20
198.1062338796924
 30
0.0
 10
286.3691258684102
 20
200.3013659080091
 30
0.0
 10
286.33590382059
 20
200.8269140743184
 30
0.0
  0
LINE
  5
220
330
1F
100
AcDbEntity
  8
0
  6
Continuous
 62
     7
370
    15
100
AcDbLine
 10
286.1827496858
 20
203.1819108189
 30
0.0
 11
285.5817709537
 21
205.9398819939
 31
0.0
  0
LINE
  5
221
330
1F
100
AcDbEntity
  8
0
  6
Continuous
 62
     7
370
    15
100
AcDbLine
 10
272.2068313928
 20
186.2081722603
 30
0.0
 11
223.1923021795
 21
186.2081722603
 31
0.0
  0
ARC
  5
222
330
1F
100
AcDbEntity
  8
0
  6
Continuous
 62
     7
370
    15
100
AcDbCircle
 10
223.1923023057
 20
177.682672383
 30
0.0
 40
8.525500000000008
100
AcDbArc
 50
90.0000000004
 51
179.5000000117
  0
LINE
  5
223
330
1F
100
AcDbEntity
  8
0
  6
Continuous
 62
     7
370
    15
100
AcDbLine
 10
214.6671271371
 20
177.7570708901
 30
0.0
 11
213.9872001903
 21
99.8451407314
 31
0.0
  0
ARC
  5
224
330
1F
100
AcDbEntity
  8
0
  6
Continuous
 62
     7
370
    15
100
AcDbCircle
 10
168.1754548538
 20
177.682672383
 30
0.0
 40
8.525500000000008
100
AcDbArc
 50
0.4999999883
 51
89.9999999996
  0
LINE
  5
225
330
1F
100
AcDbEntity
  8
0
  6
Continuous
 62
     7
370
    15
100
AcDbLine
 10
284.3296934338
 20
186.2081722603
 30
0.0
 11
272.2068313928
 21
186.2081722603
 31
0.0
  0
LINE
  5
226
330
1F
100
AcDbEntity
  8
0
  6
Continuous
 62
     7
370
    15
100
AcDbLine
 10
119.1609237762
 20
186.2081722603
 30
0.0
 11
107.0380617352
 21
186.2081722603
 31
0.0
  0
LINE
  5
227
330
1F
100
AcDbEntity
  8
0
  6
Continuous
 62
     7
370
    15
100
AcDbLine
 10
168.1754548522
 20
186.2081722603
 30
0.0
 11
119.1609237762
 21
186.2081722603
 31
0.0
  0
LINE
  5
228
330
1F
100
AcDbEntity
  8
0
  6
Continuous
 62
     7
370
    15
100
AcDbLine
 10
177.3805577727
 20
99.8451407314
 30
0.0
 11
176.700630826
 21
177.7570708901
 31
0.0
  0
ARC
  5
229
330
1F
100
AcDbEntity
  8
0
  6
Continuous
 62
     7
370
    15
100
AcDbCircle
 10
201.9516581064
 20
99.950172383
 30
0.0
 40
12.036
100
AcDbArc
 50
270.0
 51
359.5
  0
ARC
  5
22A
330
1F
100
AcDbEntity
  8
0
  6
Continuous
 62
     7
370
    15
100
AcDbCircle
 10
189.4160990531
 20
99.950172383
 30
0.0
 40
12.03600000000001
100
AcDbArc
 50
180.5
 51
270.0
  0
LINE
  5
22B
330
1F
100
AcDbEntity
  8
0
  6
Continuous
 62
     7
370
    15
100
AcDbLine
 10
201.9516580226
 20
87.9141758442
 30
0.0
 11
189.4160990091
 21
87.9141758442
 31
0.0
  0
LINE
  5
22C
330
1F
100
AcDbEntity
  8
0
  6
Continuous
 62
     7
370
    15
100
AcDbLine
 10
255.5822465988
 20
224.3221714408
 30
0.0
 11
286.2355146976
 21
224.3221714408
 31
0.0
  0
LINE
  5
22D
330
1F
100
AcDbEntity
  8
0
  6
Continuous
 62
     7
370
    15
100
AcDbLine
 10
105.132247922
 20
224.3221733034
 30
0.0
 11
135.7855085703
 21
224.3221733034
 31
0.0
  0
ARC
  5
22E
330
1F
100
AcDbEntity
  8
0
  6
Continuous
 62
     7
370
    15
100
AcDbCircle
 10
226.3697780126
 20
214.292172383
 30
0.0
 40
8.02400000000003
100
AcDbArc
 50
189.2817990867
 51
270.0
  0
ARC
  5
22F
330
1F
100
AcDbEntity
  8
0
  6
Continuous
 62
     7
370
    15
100
AcDbCircle
 10
164.997979147
 20
214.292172383
 30
0.0
 40
8.02400000000003
100
AcDbArc
 50
270.0
 51
350.7182009133
  0
SPLINE
  5
230
330
1F
100
AcDbEntity
  8
0
  6
Continuous
 62
     7
370
    15
100
AcDbSpline
210
0.0
220
0.0
230
1.0
 70
     8
 71
     3
 72
     8
 73
     4
 74
     0
 42
0.00000001
 43
0.00000001
 40
0.0
 40
0.0
 40
0.0
 40
0.0
 40
1.0
 40
1.0
 40
1.0
 40
1.0
 10
172.829079517925
 20
212.4135589731031
 30
0.0
 10
172.8830852586411
 20
212.8070979443984
 30
0.0
 10
172.9169209360811
 20
212.9979788346129
 30
0.0
 10
172.9169209360811
 20
212.9979788346129
 30
0.0
  0
SPLINE
  5
231
330
1F
100
AcDbEntity
  8
0
  6
Continuous
 62
     7
370
    15
100
AcDbSpline
210
0.0
220
0.0
230
1.0
 70
     8
 71
     3
 72
    34
 73
    30
 74
     0
 42
0.00000001
 43
0.00000001
 40
0.0
 40
0.0
 40
0.0
 40
0.0
 40
0.0101839707203301
 40
0.0203577798392025
 40
0.0305597664427186
 40
0.040827687524558
 40
0.0511981211689877
 40
0.06170593459632
 40
0.09203270626929
 40
0.1236635961769485
 40
0.1545024458522559
 40
0.1866689656636635
 40
0.2497014961245374
 40
0.3121197613874871
 40
0.3756237360389753
 40
0.439344612213961
 40
0.5020370603771648
 40
0.564600155061913
 40
0.6284029109816271
 40
0.692117868607666
 40
0.7547244549896999
 40
0.8171270414309221
 40
0.8489138342592841
 40
0.8793842041984011
 40
0.9102454410560719
 40
0.9398535167121396
 40
0.9601720033448409
 40
0.9801286608722902
 40
0.9999999999999999
 40
0.9999999999999999
 40
0.9999999999999999
 40
0.9999999999999999
 10
281.1459969517498
 20
220.3416395132594
 30
0.0
 10
281.1464726537713
 20
220.3900543249759
 30
0.0
 10
281.1474235831571
 20
220.486835639941
 30
0.0
 10
281.1551640797798
 20
220.6314296867882
 30
0.0
 10
281.1675401664173
 20
220.7750476468411
 30
0.0
 10
281.1849815482648
 20
220.9175495035722
 30
0.0
 10
281.2073320969436
 20
221.0588111037316
 30
0.0
 10
281.2514961121268
 20
221.2857669948662
 30
0.0
 10
281.3331838321924
 20
221.5910583435177
 30
0.0
 10
281.4679374960832
 20
221.9423667594166
 30
0.0
 10
281.6282493154009
 20
222.259360865694
 30
0.0
 10
281.8655044142796
 20
222.6272643684441
 30
0.0
 10
282.1944782939713
 20
222.994289233258
 30
0.0
 10
282.6160694578363
 20
223.3102023898898
 30
0.0
 10
283.0550689308953
 20
223.5228213381278
 30
0.0
 10
283.5031073688152
 20
223.6438549105154
 30
0.0
 10
283.9523214664068
 20
223.6814950701991
 30
0.0
 10
284.4018234436186
 20
223.6387233916861
 30
0.0
 10
284.8497662511363
 20
223.5121429541088
 30
0.0
 10
285.2890183375717
 20
223.2927282824913
 30
0.0
 10
285.7087842588256
 20
222.9694289998481
 30
0.0
 10
286.0340431358637
 20
222.5969169355619
 30
0.0
 10
286.2661837681453
 20
222.2271019096707
 30
0.0
 10
286.4220496939951
 20
221.9110237860143
 30
0.0
 10
286.5517153490776
 20
221.5633767994624
 30
0.0
 10
286.6411982402169
 20
221.221339691401
 30
0.0
 10
286.6950927007957
 20
220.9065452380144
 30
0.0
 10
286.7249174827018
 20
220.6256102441232
 30
0.0
 10
286.7286182085429
 20
220.4361611460605
 30
0.0
 10
286.7304646076686
 20
220.3416395132594
 30
0.0
  0
SPLINE
  5
232
330
1F
100
AcDbEntity
  8
0
  6
Continuous
 62
     7
370
    15
100
AcDbSpline
210
0.0
220
0.0
230
1.0
 70
     8
 71
     3
 72
    34
 73
    30
 74
     0
 42
0.00000001
 43
0.00000001
 40
0.0
 40
0.0
 40
0.0
 40
0.0
 40
0.0102436354304556
 40
0.0204882363177385
 40
0.0307731700840706
 40
0.0411373572408127
 40
0.0516188027447441
 40
0.0622541783753266
 40
0.0927157460901448
 40
0.1246808247157947
 40
0.1551799782832504
 40
0.1872228984684493
 40
0.2496668338799994
 40
0.3134441107046503
 40
0.3776841904583961
 40
0.4408749461216006
 40
0.5027365256510176
 40
0.5662850802360704
 40
0.6304752486803992
 40
0.6941267219918859
 40
0.7563617984154712
 40
0.8183780767692811
 40
0.8500594693880472
 40
0.8802067043038342
 40
0.9109406958193341
 40
0.9402519345262169
 40
0.9604662120732316
 40
0.9802908616054361
 40
1.0
 40
1.0
 40
1.0
 40
1.0
 10
265.3244109238537
 20
220.3416395132594
 30
0.0
 10
265.3253840846208
 20
220.3903380515256
 30
0.0
 10
265.327330497875
 20
220.4877397178677
 30
0.0
 10
265.3431015199543
 20
220.6333327629578
 30
0.0
 10
265.368260295706
 20
220.7780922996897
 30
0.0
 10
265.4036969858666
 20
220.9218769059225
 30
0.0
 10
265.4491340762456
 20
221.0645604359633
 30
0.0
 10
265.5386437434092
 20
221.2929307314203
 30
0.0
 10
265.7044785682589
 20
221.6002163139899
 30
0.0
 10
265.9758222158998
 20
221.9508482020252
 30
0.0
 10
266.2973513457684
 20
222.2661624385222
 30
0.0
 10
266.7683058355491
 20
222.630138674791
 30
0.0
 10
267.4290352771321
 20
222.998457264988
 30
0.0
 10
268.2797832835875
 20
223.3153283820012
 30
0.0
 10
269.1656228325447
 20
223.5268028476928
 30
0.0
 10
270.0588611620246
 20
223.6454836240049
 30
0.0
 10
270.9557523116103
 20
223.6812928987153
 30
0.0
 10
271.8570832117302
 20
223.6369180825932
 30
0.0
 10
272.7589267212343
 20
223.5070242095691
 30
0.0
 10
273.6365844882487
 20
223.2844696589208
 30
0.0
 10
274.4710341137695
 20
222.9592225462287
 30
0.0
 10
275.1164174970855
 20
222.586119182134
 30
0.0
 10
275.5762665513172
 20
222.2167574420311
 30
0.0
 10
275.8846096144085
 20
221.9012899615731
 30
0.0
 10
276.1406420293284
 20
221.5555330977678
 30
0.0
 10
276.3173490786104
 20
221.215216981204
 30
0.0
 10
276.4237778629616
 20
220.9025826502992
 30
0.0
 10
276.4825029085735
 20
220.6234344681722
 30
0.0
 10
276.4897388407144
 20
220.4353880181044
 30
0.0
 10
276.4933462356911
 20
220.3416395132594
 30
0.0
  0
SPLINE
  5
233
330
1F
100
AcDbEntity
  8
0
  6
Continuous
 62
     7
370
    15
100
AcDbSpline
210
0.0
220
0.0
230
1.0
 70
     8
 71
     3
 72
    34
 73
    30
 74
     0
 42
0.00000001
 43
0.00000001
 40
0.0
 40
0.0
 40
0.0
 40
0.0
 40
0.010183970720391
 40
0.0203577798393038
 40
0.0305597664428383
 40
0.0408276875246775
 40
0.0511981211690864
 40
0.0617059345963805
 40
0.0920327062721183
 40
0.1236635961771295
 40
0.1545024458572568
 40
0.1866689656638961
 40
0.2497014961248269
 40
0.3121197613878365
 40
0.3756237360393677
 40
0.4393446122143883
 40
0.5020370603776152
 40
0.5646001550624141
 40
0.6284029109821714
 40
0.692117868608238
 40
0.7547244549902882
 40
0.8171270414315404
 40
0.8489138342596442
 40
0.8793842041990602
 40
0.9102454410581279
 40
0.9398535167124872
 40
0.9601720033452324
 40
0.9801286608725691
 40
1.0
 40
1.0
 40
1.0
 40
1.0
 10
255.0872925518762
 20
220.3416395132594
 30
0.0
 10
255.0877756476318
 20
220.3900543249761
 30
0.0
 10
255.0887413571086
 20
220.4868356399417
 30
0.0
 10
255.0965411413891
 20
220.6314296867896
 30
0.0
 10
255.1089423487273
 20
220.7750476468428
 30
0.0
 10
255.1263657336274
 20
220.9175495035738
 30
0.0
 10
255.1486621973132
 20
221.058811103733
 30
0.0
 10
255.1927416168968
 20
221.2857669948789
 30
0.0
 10
255.2745575874397
 20
221.591058343535
 30
0.0
 10
255.4091946692627
 20
221.942366759444
 30
0.0
 10
255.5696981937382
 20
222.2593608657086
 30
0.0
 10
255.8067192153275
 20
222.627264368458
 30
0.0
 10
256.1357577417975
 20
222.9942892332592
 30
0.0
 10
256.5574372830592
 20
223.3102023898912
 30
0.0
 10
256.9963528121614
 20
223.5228213381287
 30
0.0
 10
257.444265834607
 20
223.6438549105159
 30
0.0
 10
257.8936852517347
 20
223.6814950701991
 30
0.0
 10
258.3429766745926
 20
223.6387233916854
 30
0.0
 10
258.7910246219807
 20
223.5121429541075
 30
0.0
 10
259.2304303914786
 20
223.2927282824885
 30
0.0
 10
259.6500641545274
 20
222.9694289998459
 30
0.0
 10
259.9752918767995
 20
222.5969169355539
 30
0.0
 10
260.2075938910685
 20
222.2271019096721
 30
0.0
 10
260.3632530831093
 20
221.9110237860029
 30
0.0
 10
260.4930485144532
 20
221.5633767994485
 30
0.0
 10
260.5825023749438
 20
221.2213396913892
 30
0.0
 10
260.636572644646
 20
220.9065452380095
 30
0.0
 10
260.6663120860691
 20
220.62561024412
 30
0.0
 10
260.6699467625864
 20
220.4361611460592
 30
0.0
 10
260.6717602077948
 20
220.3416395132594
 30
0.0
  0
SPLINE
  5
234
330
1F
100
AcDbEntity
  8
0
  6
Continuous
 62
     7
370
    15
100
AcDbSpline
210
0.0
220
0.0
230
1.0
 70
     8
 71
     3
 72
    34
 73
    30
 74
     0
 42
0.00000001
 43
0.00000001
 40
0.0
 40
0.0
 40
0.0
 40
0.0
 40
0.0101839707203306
 40
0.020357779839203
 40
0.0305597664427185
 40
0.0408276875245577
 40
0.0511981211689875
 40
0.0617059345963198
 40
0.0920327062692907
 40
0.1236635961769489
 40
0.1545024458522558
 40
0.1866689656636631
 40
0.2497014961245369
 40
0.3121197613874881
 40
0.3756237360389747
 40
0.4393446122139608
 40
0.5020370603771656
 40
0.5646001550619122
 40
0.6284029109816275
 40
0.6921178686076667
 40
0.7547244549896996
 40
0.8171270414309234
 40
0.8489138342592842
 40
0.8793842041984011
 40
0.9102454410560714
 40
0.9398535167121396
 40
0.9601720033448402
 40
0.9801286608722901
 40
1.0
 40
1.0
 40
1.0
 40
1.0
 10
130.6959969517497
 20
220.3416395132606
 30
0.0
 10
130.6964726537712
 20
220.3900543249771
 30
0.0
 10
130.697423583157
 20
220.4868356399422
 30
0.0
 10
130.7051640797798
 20
220.6314296867895
 30
0.0
 10
130.7175401664172
 20
220.7750476468423
 30
0.0
 10
130.7349815482647
 20
220.9175495035735
 30
0.0
 10
130.7573320969433
 20
221.0588111037328
 30
0.0
 10
130.8014961121268
 20
221.2857669948675
 30
0.0
 10
130.8831838321923
 20
221.591058343519
 30
0.0
 10
131.0179374960831
 20
221.9423667594178
 30
0.0
 10
131.1782493154007
 20
222.2593608656952
 30
0.0
 10
131.4155044142795
 20
222.6272643684454
 30
0.0
 10
131.7444782939712
 20
222.9942892332593
 30
0.0
 10
132.1660694578362
 20
223.3102023898911
 30
0.0
 10
132.6050689308952
 20
223.522821338129
 30
0.0
 10
133.0531073688151
 20
223.6438549105166
 30
0.0
 10
133.5023214664068
 20
223.6814950702004
 30
0.0
 10
133.9518234436185
 20
223.6387233916873
 30
0.0
 10
134.3997662511362
 20
223.5121429541101
 30
0.0
 10
134.8390183375716
 20
223.2927282824926
 30
0.0
 10
135.2587842588255
 20
222.9694289998494
 30
0.0
 10
135.5840431358636
 20
222.5969169355632
 30
0.0
 10
135.8161837681452
 20
222.2271019096719
 30
0.0
 10
135.972049693995
 20
221.9110237860156
 30
0.0
 10
136.1017153490774
 20
221.5633767994636
 30
0.0
 10
136.1911982402167
 20
221.2213396914023
 30
0.0
 10
136.2450927007955
 20
220.9065452380157
 30
0.0
 10
136.2749174827017
 20
220.6256102441244
 30
0.0
 10
136.2786182085428
 20
220.4361611460617
 30
0.0
 10
136.2804646076686
 20
220.3416395132606
 30
0.0
  0
SPLINE
  5
235
330
1F
100
AcDbEntity
  8
0
  6
Continuous
 62
     7
370
    15
100
AcDbSpline
210
0.0
220
0.0
230
1.0
 70
     8
 71
     3
 72
    34
 73
    30
 74
     0
 42
0.00000001
 43
0.00000001
 40
0.0
 40
0.0
 40
0.0
 40
0.0
 40
0.0102436354304554
 40
0.0204882363177379
 40
0.0307731700840711
 40
0.0411373572408131
 40
0.0516188027447435
 40
0.0622541783753263
 40
0.0927157460901448
 40
0.1246808247157938
 40
0.1551799782832505
 40
0.18722289846845
 40
0.2496668338799981
 40
0.3134441107046517
 40
0.3776841904583966
 40
0.4408749461215993
 40
0.5027365256510173
 40
0.5662850802360713
 40
0.6304752486803991
 40
0.6941267219918867
 40
0.7563617984154722
 40
0.8183780767692801
 40
0.8500594693880471
 40
0.8802067043038321
 40
0.9109406958193332
 40
0.9402519345262176
 40
0.9604662120732326
 40
0.9802908616054364
 40
0.9999999999999999
 40
0.9999999999999999
 40
0.9999999999999999
 40
0.9999999999999999
 10
114.8744109238536
 20
220.3416395132607
 30
0.0
 10
114.8753840846207
 20
220.3903380515269
 30
0.0
 10
114.8773304978749
 20
220.4877397178689
 30
0.0
 10
114.8931015199542
 20
220.633332762959
 30
0.0
 10
114.9182602957059
 20
220.778092299691
 30
0.0
 10
114.9536969858666
 20
220.9218769059237
 30
0.0
 10
114.9991340762454
 20
221.0645604359646
 30
0.0
 10
115.0886437434092
 20
221.2929307314215
 30
0.0
 10
115.2544785682589
 20
221.6002163139911
 30
0.0
 10
115.5258222158997
 20
221.9508482020264
 30
0.0
 10
115.8473513457683
 20
222.2661624385234
 30
0.0
 10
116.318305835549
 20
222.6301386747922
 30
0.0
 10
116.9790352771321
 20
222.9984572649893
 30
0.0
 10
117.8297832835874
 20
223.3153283820024
 30
0.0
 10
118.7156228325447
 20
223.5268028476941
 30
0.0
 10
119.6088611620245
 20
223.6454836240061
 30
0.0
 10
120.5057523116102
 20
223.6812928987165
 30
0.0
 10
121.4070832117302
 20
223.6369180825945
 30
0.0
 10
122.3089267212342
 20
223.5070242095704
 30
0.0
 10
123.1865844882486
 20
223.2844696589221
 30
0.0
 10
124.0210341137694
 20
222.95922254623
 30
0.0
 10
124.6664174970854
 20
222.5861191821352
 30
0.0
 10
125.1262665513171
 20
222.2167574420323
 30
0.0
 10
125.4346096144083
 20
221.9012899615743
 30
0.0
 10
125.6906420293282
 20
221.555533097769
 30
0.0
 10
125.8673490786104
 20
221.2152169812053
 30
0.0
 10
125.9737778629616
 20
220.9025826503005
 30
0.0
 10
126.0325029085734
 20
220.6234344681734
 30
0.0
 10
126.0397388407142
 20
220.4353880181056
 30
0.0
 10
126.043346235691
 20
220.3416395132606
 30
0.0
  0
SPLINE
  5
236
330
1F
100
AcDbEntity
  8
0
  6
Continuous
 62
     7
370
    15
100
AcDbSpline
210
0.0
220
0.0
230
1.0
 70
     8
 71
     3
 72
    34
 73
    30
 74
     0
 42
0.00000001
 43
0.00000001
 40
0.0
 40
0.0
 40
0.0
 40
0.0
 40
0.0101839707203908
 40
0.0203577798393033
 40
0.030559766442838
 40
0.0408276875246766
 40
0.0511981211690855
 40
0.0617059345963792
 40
0.0920327062721182
 40
0.123663596177128
 40
0.1545024458572553
 40
0.1866689656638954
 40
0.2497014961248271
 40
0.3121197613878363
 40
0.3756237360393671
 40
0.439344612214389
 40
0.5020370603776141
 40
0.564600155062414
 40
0.6284029109821698
 40
0.6921178686082371
 40
0.7547244549902873
 40
0.8171270414315404
 40
0.8489138342596426
 40
0.8793842041990603
 40
0.9102454410581282
 40
0.9398535167124867
 40
0.9601720033452317
 40
0.9801286608725689
 40
0.9999999999999999
 40
0.9999999999999999
 40
0.9999999999999999
 40
0.9999999999999999
 10
104.6372925518761
 20
220.3416395132606
 30
0.0
 10
104.6377756476318
 20
220.3900543249774
 30
0.0
 10
104.6387413571086
 20
220.486835639943
 30
0.0
 10
104.646541141389
 20
220.6314296867908
 30
0.0
 10
104.6589423487273
 20
220.775047646844
 30
0.0
 10
104.6763657336273
 20
220.9175495035751
 30
0.0
 10
104.698662197313
 20
221.0588111037342
 30
0.0
 10
104.7427416168967
 20
221.2857669948802
 30
0.0
 10
104.8245575874396
 20
221.5910583435362
 30
0.0
 10
104.9591946692626
 20
221.9423667594453
 30
0.0
 10
105.1196981937381
 20
222.2593608657098
 30
0.0
 10
105.3567192153274
 20
222.6272643684592
 30
0.0
 10
105.6857577417974
 20
222.9942892332605
 30
0.0
 10
106.1074372830591
 20
223.3102023898925
 30
0.0
 10
106.5463528121613
 20
223.52282133813
 30
0.0
 10
106.9942658346069
 20
223.6438549105171
 30
0.0
 10
107.4436852517346
 20
223.6814950702004
 30
0.0
 10
107.8929766745926
 20
223.6387233916867
 30
0.0
 10
108.3410246219805
 20
223.5121429541088
 30
0.0
 10
108.7804303914785
 20
223.2927282824898
 30
0.0
 10
109.2000641545273
 20
222.9694289998471
 30
0.0
 10
109.5252918767994
 20
222.5969169355551
 30
0.0
 10
109.7575938910684
 20
222.2271019096733
 30
0.0
 10
109.9132530831092
 20
221.9110237860042
 30
0.0
 10
110.0430485144532
 20
221.5633767994498
 30
0.0
 10
110.1325023749436
 20
221.2213396913905
 30
0.0
 10
110.1865726446459
 20
220.9065452380108
 30
0.0
 10
110.2163120860689
 20
220.6256102441212
 30
0.0
 10
110.2199467625863
 20
220.4361611460604
 30
0.0
 10
110.2217602077948
 20
220.3416395132606
 30
0.0
  0
LINE
  5
237
330
1F
100
AcDbEntity
  8
0
  6
Continuous
 62
     7
370
    15
100
AcDbLine
 10
256.3653771253
 20
207.271172224
 30
0.0
 11
285.4523767205
 21
207.271172224
 31
0.0
  0
SPLINE
  5
238
330
1F
100
AcDbEntity
  8
0
  6
Continuous
 62
     7
370
    15
100
AcDbSpline
210
0.0
220
0.0
230
1.0
 70
     8
 71
     3
 72
    34
 73
    30
 74
     0
 42
0.00000001
 43
0.00000001
 40
0.0
 40
0.0
 40
0.0
 40
0.0
 40
0.0102436354293117
 40
0.0204882363159109
 40
0.0307731700820114
 40
0.0411373572389541
 40
0.0516188027434939
 40
0.062254178375066
 40
0.0927157460801864
 40
0.1246808247150709
 40
0.1551799782755465
 40
0.1872228984674202
 40
0.2496668338787207
 40
0.3134441107030262
 40
0.3776841904563121
 40
0.4408749461190331
 40
0.5027365256481465
 40
0.5662850802328048
 40
0.6304752486766807
 40
0.6941267219877625
 40
0.7563617984110649
 40
0.818378076764588
 40
0.8500594693802299
 40
0.8802067042990477
 40
0.9109406958049908
 40
0.9402519345235199
 40
0.9604662120624197
 40
0.9802908615955395
 40
1.0
 40
1.0
 40
1.0
 40
1.0
 10
276.4933462356912
 20
211.2517052082949
 30
0.0
 10
276.4923730749209
 20
211.2030066700345
 30
0.0
 10
276.4904266616605
 20
211.1056050037022
 30
0.0
 10
276.4746556395741
 20
210.9600119586242
 30
0.0
 10
276.4494968638169
 20
210.8152524218981
 30
0.0
 10
276.4140601736524
 20
210.6714678156649
 30
0.0
 10
276.3686230832703
 20
210.5287842856179
 30
0.0
 10
276.2791134161316
 20
210.3004139901946
 30
0.0
 10
276.1132785912653
 20
209.9931284076351
 30
0.0
 10
275.8419349436616
 20
209.642496519623
 30
0.0
 10
275.520405813782
 20
209.3271822830816
 30
0.0
 10
275.0494513239914
 20
208.9632060468371
 30
0.0
 10
274.3887218823987
 20
208.5948874566179
 30
0.0
 10
273.537973875954
 20
208.2780163396109
 30
0.0
 10
272.6521343270126
 20
208.0665418739184
 30
0.0
 10
271.7588959975473
 20
207.9478610976051
 30
0.0
 10
270.8620048479759
 20
207.9120518228915
 30
0.0
 10
269.9606739478697
 20
207.9564266390091
 30
0.0
 10
269.0588304383795
 20
208.0863205120268
 30
0.0
 10
268.1811726713769
 20
208.3088750626656
 30
0.0
 10
267.3467230458668
 20
208.6341221753466
 30
0.0
 10
266.7013396625617
 20
209.0072255394133
 30
0.0
 10
266.2414906083358
 20
209.3765872795097
 30
0.0
 10
265.9331475452564
 20
209.6920547599099
 30
0.0
 10
265.6771151303199
 20
210.0378116237275
 30
0.0
 10
265.5004080810244
 20
210.378127740246
 30
0.0
 10
265.393979296614
 20
210.6907620711504
 30
0.0
 10
265.3352542509998
 20
210.9699102532879
 30
0.0
 10
265.3280183188403
 20
211.1579567034042
 30
0.0
 10
265.3244109238536
 20
211.2517052082949
 30
0.0
  0
SPLINE
  5
239
330
1F
100
AcDbEntity
  8
0
  6
Continuous
 62
     7
370
    15
100
AcDbSpline
210
0.0
220
0.0
230
1.0
 70
     8
 71
     3
 72
    34
 73
    30
 74
     0
 42
0.00000001
 43
0.00000001
 40
0.0
 40
0.0
 40
0.0
 40
0.0
 40
0.010183970719186
 40
0.0203577798373603
 40
0.0305597664406411
 40
0.0408276875227191
 40
0.0511981211678661
 40
0.0617059345963921
 40
0.0920327062707718
 40
0.123663596177006
 40
0.1545024458580554
 40
0.186668965663577
 40
0.2497014961244237
 40
0.312119761387066
 40
0.3756237360380038
 40
0.4393446122124481
 40
0.5020370603752219
 40
0.5646001550599395
 40
0.6284029109794816
 40
0.6921178686053102
 40
0.7547244549872154
 40
0.8171270414283532
 40
0.8489138342584152
 40
0.8793842041958208
 40
0.9102454410612614
 40
0.9398535167109336
 40
0.9601720033512867
 40
0.9801286608791574
 40
0.9999999999999999
 40
0.9999999999999999
 40
0.9999999999999999
 40
0.9999999999999999
 10
286.7304646076686
 20
211.2517052082949
 30
0.0
 10
286.7299815119123
 20
211.2032903965843
 30
0.0
 10
286.7290158024342
 20
211.1065090816288
 30
0.0
 10
286.7212160181523
 20
210.9619150347931
 30
0.0
 10
286.7088148108126
 20
210.8182970747456
 30
0.0
 10
286.6913914259105
 20
210.6757952180137
 30
0.0
 10
286.6690949622216
 20
210.5345336178473
 30
0.0
 10
286.6250155426355
 20
210.3075777267021
 30
0.0
 10
286.543199572089
 20
210.0022863780478
 30
0.0
 10
286.4085624902643
 20
209.6509779621435
 30
0.0
 10
286.2480589657861
 20
209.3339838558757
 30
0.0
 10
286.0110379441992
 20
208.9660803531424
 30
0.0
 10
285.681999417735
 20
208.5990554883448
 30
0.0
 10
285.2603198764798
 20
208.2831423317177
 30
0.0
 10
284.8214043473855
 20
208.0705233834812
 30
0.0
 10
284.373491324948
 20
207.9494898110935
 30
0.0
 10
283.9240719078271
 20
207.9118496514077
 30
0.0
 10
283.474780484975
 20
207.9546213299178
 30
0.0
 10
283.0267325375922
 20
208.081201767491
 30
0.0
 10
282.5873267680986
 20
208.3006164391026
 30
0.0
 10
282.167693005056
 20
208.623915721738
 30
0.0
 10
281.8424652827746
 20
208.9964277860154
 30
0.0
 10
281.6101632685189
 20
209.3662428119015
 30
0.0
 10
281.4545040764594
 20
209.6823209355754
 30
0.0
 10
281.3247086450931
 20
210.0299679221058
 30
0.0
 10
281.2352547846059
 20
210.372005030209
 30
0.0
 10
281.1811845149222
 20
210.686799483608
 30
0.0
 10
281.1514450734797
 20
210.9677344774969
 30
0.0
 10
281.1478103969594
 20
211.1571835755273
 30
0.0
 10
281.1459969517499
 20
211.2517052082949
 30
0.0
  0
SPLINE
  5
23A
330
1F
100
AcDbEntity
  8
0
  6
Continuous
 62
     7
370
    15
100
AcDbSpline
210
0.0
220
0.0
230
1.0
 70
     8
 71
     3
 72
    34
 73
    30
 74
     0
 42
0.00000001
 43
0.00000001
 40
0.0
 40
0.0
 40
0.0
 40
0.0
 40
0.0101839707187691
 40
0.0203577798366869
 40
0.0305597664398738
 40
0.0408276875220182
 40
0.0511981211673892
 40
0.0617059345962911
 40
0.0920327062664199
 40
0.1236635961767596
 40
0.1545024458512611
 40
0.18666896566326
 40
0.2497014961240245
 40
0.3121197613865928
 40
0.3756237360374927
 40
0.4393446122119186
 40
0.5020370603746827
 40
0.5646001550593477
 40
0.6284029109788549
 40
0.6921178686046612
 40
0.7547244549865453
 40
0.8171270414276188
 40
0.848913834258265
 40
0.8793842041951707
 40
0.9102454410601222
 40
0.9398535167104923
 40
0.9601720033435402
 40
0.9801286608716209
 40
1.0
 40
1.0
 40
1.0
 40
1.0
 10
260.6717602077949
 20
211.2517052082949
 30
0.0
 10
260.6712845057737
 20
211.2032903965863
 30
0.0
 10
260.6703335763883
 20
211.106509081634
 30
0.0
 10
260.662593079764
 20
210.961915034802
 30
0.0
 10
260.6502169931238
 20
210.8182970747559
 30
0.0
 10
260.6327756112728
 20
210.675795218023
 30
0.0
 10
260.6104250625899
 20
210.5345336178535
 30
0.0
 10
260.5662610474089
 20
210.3075777267225
 30
0.0
 10
260.4845733273374
 20
210.002286378072
 30
0.0
 10
260.3498196634476
 20
209.6509779621828
 30
0.0
 10
260.1895078441325
 20
209.3339838558963
 30
0.0
 10
259.952252745248
 20
208.9660803531609
 30
0.0
 10
259.623278865563
 20
208.5990554883467
 30
0.0
 10
259.2016877017033
 20
208.2831423317197
 30
0.0
 10
258.7626882286526
 20
208.0705233834826
 30
0.0
 10
258.3146497907407
 20
207.9494898110942
 30
0.0
 10
257.865435693156
 20
207.9118496514077
 30
0.0
 10
257.4159337159501
 20
207.954621329917
 30
0.0
 10
256.9679909084375
 20
208.081201767489
 30
0.0
 10
256.528738822007
 20
208.3006164391004
 30
0.0
 10
256.1089729007574
 20
208.6239157217304
 30
0.0
 10
255.7837140237151
 20
208.9964277860192
 30
0.0
 10
255.551573391435
 20
209.3662428118808
 30
0.0
 10
255.39570746557
 20
209.6823209355663
 30
0.0
 10
255.2660418104874
 20
210.0299679221086
 30
0.0
 10
255.1765589193429
 20
210.3720050301678
 30
0.0
 10
255.1226644587649
 20
210.6867994835334
 30
0.0
 10
255.0928396768523
 20
210.9677344774257
 30
0.0
 10
255.0891389510051
 20
211.1571835754919
 30
0.0
 10
255.0872925518761
 20
211.2517052082949
 30
0.0
  0
LINE
  5
23B
330
1F
100
AcDbEntity
  8
0
  6
Continuous
 62
     7
370
    15
100
AcDbLine
 10
105.9153784486
 20
207.271172224
 30
0.0
 11
135.0023780437
 21
207.271172224
 31
0.0
  0
SPLINE
  5
23C
330
1F
100
AcDbEntity
  8
0
  6
Continuous
 62
     7
370
    15
100
AcDbSpline
210
0.0
220
0.0
230
1.0
 70
     8
 71
     3
 72
    34
 73
    30
 74
     0
 42
0.00000001
 43
0.00000001
 40
0.0
 40
0.0
 40
0.0
 40
0.0
 40
0.0102436354293117
 40
0.020488236315911
 40
0.0307731700820117
 40
0.041137357238954
 40
0.051618802743494
 40
0.0622541783750665
 40
0.0927157460801859
 40
0.1246808247150711
 40
0.1551799782755464
 40
0.1872228984674188
 40
0.24966683387872
 40
0.3134441107030264
 40
0.3776841904563123
 40
0.4408749461190333
 40
0.5027365256481457
 40
0.566285080232804
 40
0.6304752486766773
 40
0.6941267219877599
 40
0.7563617984110641
 40
0.818378076764589
 40
0.8500594693802296
 40
0.8802067042990487
 40
0.9109406958049914
 40
0.9402519345235196
 40
0.96046621206242
 40
0.9802908615955394
 40
1.0
 40
1.0
 40
1.0
 40
1.0
 10
126.0433462356911
 20
211.2517052082961
 30
0.0
 10
126.0423730749208
 20
211.2030066700358
 30
0.0
 10
126.0404266616604
 20
211.1056050037035
 30
0.0
 10
126.0246556395739
 20
210.9600119586255
 30
0.0
 10
125.9994968638168
 20
210.8152524218993
 30
0.0
 10
125.9640601736523
 20
210.6714678156661
 30
0.0
 10
125.9186230832702
 20
210.5287842856191
 30
0.0
 10
125.8291134161315
 20
210.3004139901959
 30
0.0
 10
125.6632785912652
 20
209.9931284076364
 30
0.0
 10
125.3919349436615
 20
209.6424965196242
 30
0.0
 10
125.0704058137818
 20
209.3271822830828
 30
0.0
 10
124.5994513239914
 20
208.9632060468383
 30
0.0
 10
123.9387218823986
 20
208.5948874566192
 30
0.0
 10
123.0879738759539
 20
208.2780163396122
 30
0.0
 10
122.2021343270125
 20
208.0665418739197
 30
0.0
 10
121.3088959975472
 20
207.9478610976063
 30
0.0
 10
120.4120048479759
 20
207.9120518228928
 30
0.0
 10
119.5106739478695
 20
207.9564266390103
 30
0.0
 10
118.6088304383795
 20
208.0863205120281
 30
0.0
 10
117.7311726713768
 20
208.3088750626668
 30
0.0
 10
116.8967230458667
 20
208.6341221753479
 30
0.0
 10
116.2513396625616
 20
209.0072255394145
 30
0.0
 10
115.7914906083357
 20
209.3765872795109
 30
0.0
 10
115.4831475452563
 20
209.6920547599111
 30
0.0
 10
115.2271151303198
 20
210.0378116237287
 30
0.0
 10
115.0504080810243
 20
210.3781277402473
 30
0.0
 10
114.9439792966138
 20
210.6907620711516
 30
0.0
 10
114.8852542509998
 20
210.9699102532891
 30
0.0
 10
114.8780183188403
 20
211.1579567034055
 30
0.0
 10
114.8744109238535
 20
211.2517052082961
 30
0.0
  0
SPLINE
  5
23D
330
1F
100
AcDbEntity
  8
0
  6
Continuous
 62
     7
370
    15
100
AcDbSpline
210
0.0
220
0.0
230
1.0
 70
     8
 71
     3
 72
    34
 73
    30
 74
     0
 42
0.00000001
 43
0.00000001
 40
0.0
 40
0.0
 40
0.0
 40
0.0
 40
0.010183970719186
 40
0.0203577798373601
 40
0.0305597664406411
 40
0.0408276875227192
 40
0.0511981211678662
 40
0.0617059345963921
 40
0.0920327062707717
 40
0.1236635961770065
 40
0.154502445858056
 40
0.1866689656635776
 40
0.2497014961244229
 40
0.3121197613870651
 40
0.3756237360380039
 40
0.4393446122124477
 40
0.5020370603752212
 40
0.5646001550599394
 40
0.6284029109794821
 40
0.6921178686053107
 40
0.7547244549872166
 40
0.8171270414283537
 40
0.8489138342584159
 40
0.8793842041958211
 40
0.9102454410612615
 40
0.939853516710934
 40
0.9601720033512873
 40
0.9801286608791577
 40
1.0
 40
1.0
 40
1.0
 40
1.0
 10
136.2804646076686
 20
211.2517052082961
 30
0.0
 10
136.2799815119122
 20
211.2032903965855
 30
0.0
 10
136.2790158024341
 20
211.10650908163
 30
0.0
 10
136.2712160181522
 20
210.9619150347943
 30
0.0
 10
136.2588148108125
 20
210.8182970747468
 30
0.0
 10
136.2413914259104
 20
210.6757952180149
 30
0.0
 10
136.2190949622216
 20
210.5345336178485
 30
0.0
 10
136.1750155426353
 20
210.3075777267033
 30
0.0
 10
136.093199572089
 20
210.0022863780491
 30
0.0
 10
135.9585624902641
 20
209.6509779621448
 30
0.0
 10
135.798058965786
 20
209.333983855877
 30
0.0
 10
135.5610379441992
 20
208.9660803531436
 30
0.0
 10
135.2319994177349
 20
208.599055488346
 30
0.0
 10
134.8103198764797
 20
208.283142331719
 30
0.0
 10
134.3714043473854
 20
208.0705233834825
 30
0.0
 10
133.9234913249479
 20
207.9494898110947
 30
0.0
 10
133.474071907827
 20
207.911849651409
 30
0.0
 10
133.0247804849749
 20
207.954621329919
 30
0.0
 10
132.5767325375921
 20
208.0812017674923
 30
0.0
 10
132.1373267680986
 20
208.3006164391039
 30
0.0
 10
131.7176930050558
 20
208.6239157217393
 30
0.0
 10
131.3924652827745
 20
208.9964277860167
 30
0.0
 10
131.1601632685188
 20
209.3662428119028
 30
0.0
 10
131.0045040764593
 20
209.6823209355767
 30
0.0
 10
130.874708645093
 20
210.029967922107
 30
0.0
 10
130.7852547846059
 20
210.3720050302103
 30
0.0
 10
130.7311845149221
 20
210.6867994836093
 30
0.0
 10
130.7014450734796
 20
210.9677344774982
 30
0.0
 10
130.6978103969593
 20
211.1571835755285
 30
0.0
 10
130.6959969517498
 20
211.2517052082961
 30
0.0
  0
SPLINE
  5
23E
330
1F
100
AcDbEntity
  8
0
  6
Continuous
 62
     7
370
    15
100
AcDbSpline
210
0.0
220
0.0
230
1.0
 70
     8
 71
     3
 72
    34
 73
    30
 74
     0
 42
0.00000001
 43
0.00000001
 40
0.0
 40
0.0
 40
0.0
 40
0.0
 40
0.0101839707187691
 40
0.020357779836687
 40
0.0305597664398738
 40
0.0408276875220182
 40
0.0511981211673895
 40
0.0617059345962913
 40
0.0920327062664203
 40
0.1236635961767598
 40
0.1545024458512609
 40
0.1866689656632595
 40
0.2497014961240246
 40
0.3121197613865931
 40
0.3756237360374922
 40
0.4393446122119184
 40
0.5020370603746828
 40
0.5646001550593487
 40
0.6284029109788555
 40
0.6921178686046612
 40
0.7547244549865446
 40
0.8171270414276188
 40
0.8489138342582659
 40
0.8793842041951703
 40
0.9102454410601226
 40
0.9398535167104923
 40
0.9601720033435407
 40
0.9801286608716204
 40
0.9999999999999999
 40
0.9999999999999999
 40
0.9999999999999999
 40
0.9999999999999999
 10
110.2217602077948
 20
211.2517052082961
 30
0.0
 10
110.2212845057736
 20
211.2032903965875
 30
0.0
 10
110.2203335763883
 20
211.1065090816352
 30
0.0
 10
110.2125930797639
 20
210.9619150348032
 30
0.0
 10
110.2002169931238
 20
210.8182970747571
 30
0.0
 10
110.1827756112727
 20
210.6757952180242
 30
0.0
 10
110.1604250625898
 20
210.5345336178547
 30
0.0
 10
110.1162610474087
 20
210.3075777267238
 30
0.0
 10
110.0345733273373
 20
210.0022863780732
 30
0.0
 10
109.8998196634476
 20
209.6509779621841
 30
0.0
 10
109.7395078441324
 20
209.3339838558976
 30
0.0
 10
109.502252745248
 20
208.9660803531621
 30
0.0
 10
109.1732788655628
 20
208.5990554883479
 30
0.0
 10
108.7516877017032
 20
208.283142331721
 30
0.0
 10
108.3126882286526
 20
208.0705233834839
 30
0.0
 10
107.8646497907406
 20
207.9494898110955
 30
0.0
 10
107.4154356931558
 20
207.911849651409
 30
0.0
 10
106.96593371595
 20
207.9546213299183
 30
0.0
 10
106.5179909084374
 20
208.0812017674903
 30
0.0
 10
106.0787388220069
 20
208.3006164391017
 30
0.0
 10
105.6589729007573
 20
208.6239157217317
 30
0.0
 10
105.333714023715
 20
208.9964277860204
 30
0.0
 10
105.1015733914349
 20
209.366242811882
 30
0.0
 10
104.94570746557
 20
209.6823209355676
 30
0.0
 10
104.8160418104873
 20
210.0299679221098
 30
0.0
 10
104.7265589193428
 20
210.3720050301691
 30
0.0
 10
104.6726644587647
 20
210.6867994835346
 30
0.0
 10
104.6428396768523
 20
210.9677344774269
 30
0.0
 10
104.639138951005
 20
211.1571835754931
 30
0.0
 10
104.6372925518761
 20
211.2517052082961
 30
0.0
  0
LINE
  5
23F
330
1F
100
AcDbEntity
  8
0
  6
Continuous
 62
     7
370
    15
100
AcDbLine
 10
265.3244097205
 20
211.2517054439
 30
0.0
 11
265.3244097205
 21
220.3416391522
 31
0.0
  0
LINE
  5
240
330
1F
100
AcDbEntity
  8
0
  6
Continuous
 62
     7
370
    15
100
AcDbLine
 10
276.4933441253
 20
220.3416391522
 30
0.0
 11
276.4933441253
 21
211.2517054439
 31
0.0
  0
LINE
  5
241
330
1F
100
AcDbEntity
  8
0
  6
Continuous
 62
     7
370
    15
100
AcDbLine
 10
260.6717605563
 20
220.3416391522
 30
0.0
 11
260.6717605563
 21
211.2517054439
 31
0.0
  0
LINE
  5
242
330
1F
100
AcDbEntity
  8
0
  6
Continuous
 62
     7
370
    15
100
AcDbLine
 10
281.1459932895
 20
211.2517054439
 30
0.0
 11
281.1459932895
 21
220.3416391522
 31
0.0
  0
LINE
  5
243
330
1F
100
AcDbEntity
  8
0
  6
Continuous
 62
     7
370
    15
100
AcDbLine
 10
114.8744110437
 20
211.2517054439
 30
0.0
 11
114.8744110437
 21
220.3416391522
 31
0.0
  0
LINE
  5
244
330
1F
100
AcDbEntity
  8
0
  6
Continuous
 62
     7
370
    15
100
AcDbLine
 10
126.0433454486
 20
220.3416391522
 30
0.0
 11
126.0433454486
 21
211.2517054439
 31
0.0
  0
LINE
  5
245
330
1F
100
AcDbEntity
  8
0
  6
Continuous
 62
     7
370
    15
100
AcDbLine
 10
130.6959946128
 20
211.2517054439
 30
0.0
 11
130.6959946128
 21
220.3416391522
 31
0.0
  0
LINE
  5
246
330
1F
100
AcDbEntity
  8
0
  6
Continuous
 62
     7
370
    15
100
AcDbLine
 10
110.2217618795
 20
220.3416391522
 30
0.0
 11
110.2217618795
 21
211.2517054439
 31
0.0
  0
SPLINE
  5
247
330
1F
100
AcDbEntity
  8
0
  6
Continuous
 62
     7
370
    15
100
AcDbSpline
210
0.0
220
0.0
230
1.0
 70
    24
 71
     3
 72
    21
 73
    17
 74
     0
 42
0.00000001
 43
0.00000001
 40
0.0
 40
0.0
 40
0.0
 40
0.0
 40
0.1555014294837688
 40
0.5776996968528703
 40
0.6832492636951607
 40
0.7360240471162899
 40
0.7624115501991726
 40
0.7888024057596119
 40
0.8416023545201404
 40
0.8680093457810508
 40
0.8944163370419612
 40
0.9102794616529988
 40
0.9289023582711582
 40
0.95476055526128
 40
0.9781556851236058
 40
1.0
 40
1.0
 40
1.0
 40
1.0
 10
226.3697780125738
 20
206.268172383
 30
0.0
 10
228.67864516401
 20
206.268172383
 30
0.0
 10
237.2562631183034
 20
206.268172383
 30
0.0
 10
247.4010542925948
 20
206.268172383
 30
0.0
 10
256.0206051018308
 20
206.268172383
 30
0.0
 10
258.7631660346576
 20
206.268172383
 30
0.0
 10
260.330437149208
 20
206.268172383
 30
0.0
 10
261.8978865280488
 20
206.268172383
 30
0.0
 10
263.4649637966938
 20
206.268172383
 30
0.0
 10
265.0319745980992
 20
206.268172383
 30
0.0
 10
266.0508633032659
 20
206.268172383
 30
0.0
 10
266.9543589631881
 20
206.268172383
 30
0.0
 10
267.8498760247767
 20
206.268172383
 30
0.0
 10
268.8573176406939
 20
206.268172383
 30
0.0
 10
269.9128235650382
 20
206.268172383
 30
0.0
 10
270.5845357060143
 20
206.268172383
 30
0.0
 10
270.9088785797724
 20
206.268172383
 30
0.0
  0
SPLINE
  5
248
330
1F
100
AcDbEntity
  8
0
  6
Continuous
 62
     7
370
    15
100
AcDbSpline
210
0.0
220
0.0
230
1.0
 70
    24
 71
     3
 72
    16
 73
    12
 74
     0
 42
0.00000001
 43
0.00000001
 40
0.0
 40
0.0
 40
0.0
 40
0.0
 40
0.125
 40
0.125
 40
0.25
 40
0.25
 40
0.3125
 40
0.3125
 40
0.375
 40
0.5
 40
1.0
 40
1.0
 40
1.0
 40
1.0
 10
120.4588785797724
 20
206.268172383
 30
0.0
 10
122.3146744367401
 20
206.268172383
 30
0.0
 10
124.1704702937057
 20
206.268172383
 30
0.0
 10
127.8820620076394
 20
206.268172383
 30
0.0
 10
129.7378578646031
 20
206.268172383
 30
0.0
 10
132.5215516500566
 20
206.268172383
 30
0.0
 10
133.449449578539
 20
206.268172383
 30
0.0
 10
135.3052454355044
 20
206.268172383
 30
0.0
 10
138.0889392209566
 20
206.268172383
 30
0.0
 10
148.2958164342715
 20
206.268172383
 30
0.0
 10
157.5747957191046
 20
206.268172383
 30
0.0
 10
164.997979146971
 20
206.268172383
 30
0.0
  0
SPLINE
  5
249
330
1F
100
AcDbEntity
  8
0
  6
Continuous
 62
     7
370
    15
100
AcDbSpline
210
0.0
220
0.0
230
1.0
 70
    24
 71
     3
 72
    26
 73
    22
 74
     0
 42
0.00000001
 43
0.00000001
 40
0.0
 40
0.0
 40
0.0
 40
0.0
 40
0.1250000000000001
 40
0.1250000000000001
 40
0.1875000000000002
 40
0.1875000000000002
 40
0.2500000000000004
 40
0.2500000000000004
 40
0.3749999999999999
 40
0.3749999999999999
 40
0.4999999999999994
 40
0.4999999999999994
 40
0.6249999999999989
 40
0.6249999999999989
 40
0.6874999999999986
 40
0.6874999999999986
 40
0.7499999999999981
 40
0.7499999999999981
 40
0.874999999999999
 40
0.874999999999999
 40
1.0
 40
1.0
 40
1.0
 40
1.0
 10
106.2566228057363
 20
206.268172383
 30
0.0
 10
106.2566042402588
 20
206.268172383
 30
0.0
 10
106.3403332757373
 20
206.268172383
 30
0.0
 10
106.5920079599391
 20
206.268172383
 30
0.0
 10
106.697102195938
 20
206.268172383
 30
0.0
 10
106.9525683404464
 20
206.268172383
 30
0.0
 10
107.1019504956884
 20
206.2681723829995
 30
0.0
 10
107.6106728844308
 20
206.2681723829995
 30
0.0
 10
108.0318764159617
 20
206.268172383
 30
0.0
 10
109.046396350917
 20
206.268172383
 30
0.0
 10
109.6440039535415
 20
206.268172383
 30
0.0
 10
110.9556450255798
 20
206.268172383
 30
0.0
 10
111.6730138062908
 20
206.268172383
 30
0.0
 10
112.8404137424383
 20
206.268172383
 30
0.0
 10
113.2472450433256
 20
206.268172383
 30
0.0
 10
114.0777084865898
 20
206.268172383
 30
0.0
 10
114.5016046201953
 20
206.268172383
 30
0.0
 10
115.7983492277269
 20
206.268172383
 30
0.0
 10
116.6959252260749
 20
206.268172383
 30
0.0
 10
118.5596240831815
 20
206.268172383
 30
0.0
 10
119.506436924901
 20
206.268172383
 30
0.0
 10
120.4588781202738
 20
206.268172383
 30
0.0
  0
SPLINE
  5
24A
330
1F
100
AcDbEntity
  8
0
  6
Continuous
 62
     7
370
    15
100
AcDbSpline
210
0.0
220
0.0
230
1.0
 70
     8
 71
     3
 72
    10
 73
     6
 74
     0
 42
0.00000001
 43
0.00000001
 40
0.0
 40
0.0
 40
0.0
 40
0.0
 40
0.5
 40
0.5
 40
1.0
 40
1.0
 40
1.0
 40
1.0
 10
106.2566228056502
 20
206.268172383
 30
0.0
 10
106.1609852998224
 20
206.268172383
 30
0.0
 10
106.0558994058746
 20
206.2381121055648
 30
0.0
 10
105.8835211710653
 20
206.1178709958167
 30
0.0
 10
105.819015843482
 20
206.0296342231435
 30
0.0
 10
105.7859842508356
 20
205.9398820847231
 30
0.0
  0
SPLINE
  5
24B
330
1F
100
AcDbEntity
  8
0
  6
Continuous
 62
     7
370
    15
100
AcDbSpline
210
0.0
220
0.0
230
1.0
 70
    24
 71
     3
 72
    29
 73
    25
 74
     0
 42
0.00000001
 43
0.00000001
 40
0.0
 40
0.0
 40
0.0
 40
0.0
 40
0.0158897261655059
 40
0.0317431435607591
 40
0.0475696750594288
 40
0.0633787916105053
 40
0.0791799954776029
 40
0.0949828031980849
 40
0.1107967284138039
 40
0.1266312647279209
 40
0.1893566564490736
 40
0.2520766836701074
 40
0.3149649803322186
 40
0.3777992035872044
 40
0.5024762353820039
 40
0.627999089481235
 40
0.6898940312160514
 40
0.7521578848362125
 40
0.8140702298234754
 40
0.8765723812481102
 40
0.9073826138475595
 40
0.9381812389753034
 40
0.9690324216015331
 40
1.0
 40
1.0
 40
1.0
 40
1.0
 10
270.908879039271
 20
206.268172383
 30
0.0
 10
271.0281410990443
 20
206.268172383
 30
0.0
 10
271.2663926991854
 20
206.268172383
 30
0.0
 10
271.623138276972
 20
206.268172383
 30
0.0
 10
271.9787947701993
 20
206.268172383
 30
0.0
 10
272.3333557544702
 20
206.268172383
 30
0.0
 10
272.6868229430334
 20
206.268172383
 30
0.0
 10
273.0391935807658
 20
206.268172383
 30
0.0
 10
273.3904746740591
 20
206.268172383
 30
0.0
 10
274.0859954054347
 20
206.268172383
 30
0.0
 10
275.1148490272465
 20
206.268172383
 30
0.0
 10
276.4443247731938
 20
206.268172383
 30
0.0
 10
277.7207501213956
 20
206.268172383
 30
0.0
 10
279.3264062028263
 20
206.268172383
 30
0.0
 10
281.1407106648882
 20
206.268172383
 30
0.0
 10
282.6107989571871
 20
206.268172383
 30
0.0
 10
283.5449406280578
 20
206.268172383
 30
0.0
 10
284.1167123906179
 20
206.268172383
 30
0.0
 10
284.5634618452498
 20
206.268172383
 30
0.0
 10
284.8272586545074
 20
206.268172383
 30
0.0
 10
284.9750905743341
 20
206.268172383
 30
0.0
 10
285.0532263668791
 20
206.268172383
 30
0.0
 10
285.1021124702183
 20
206.268172383
 30
0.0
 10
285.1081232594943
 20
206.268172383
 30
0.0
 10
285.111134312855
 20
206.268172383
 30
0.0
  0
SPLINE
  5
24C
330
1F
100
AcDbEntity
  8
0
  6
Continuous
 62
     7
370
    15
100
AcDbSpline
210
0.0
220
0.0
230
1.0
 70
     8
 71
     3
 72
    10
 73
     6
 74
     0
 42
0.00000001
 43
0.00000001
 40
0.0
 40
0.0
 40
0.0
 40
0.0
 40
0.5
 40
0.5
 40
1.0
 40
1.0
 40
1.0
 40
1.0
 10
285.1111343538947
 20
206.268172383
 30
0.0
 10
285.2067718597224
 20
206.268172383
 30
0.0
 10
285.3118577536702
 20
206.2381121055648
 30
0.0
 10
285.4842359884795
 20
206.1178709958167
 30
0.0
 10
285.5487413160628
 20
206.0296342231435
 30
0.0
 10
285.5817729087092
 20
205.9398820847231
 30
0.0
  0
LINE
  5
24D
330
1F
100
AcDbEntity
  8
0
  6
Continuous
 62
     7
370
    15
100
AcDbLine
 10
286.7304642173
 20
220.3416391522
 30
0.0
 11
286.7304642173
 21
211.2517054439
 31
0.0
  0
LINE
  5
24E
330
1F
100
AcDbEntity
  8
0
  6
Continuous
 62
     7
370
    15
100
AcDbLine
 10
255.0872933539
 20
211.2517054439
 30
0.0
 11
255.0872933539
 21
220.3416391522
 31
0.0
  0
LINE
  5
24F
330
1F
100
AcDbEntity
  8
0
  6
Continuous
 62
     7
370
    15
100
AcDbLine
 10
136.2804655405
 20
220.3416391522
 30
0.0
 11
136.2804655405
 21
211.2517054439
 31
0.0
  0
LINE
  5
250
330
1F
100
AcDbEntity
  8
0
  6
Continuous
 62
     7
370
    15
100
AcDbLine
 10
104.6372909518
 20
211.2517054439
 30
0.0
 11
104.6372909518
 21
220.3416391522
 31
0.0
  0
LINE
  5
251
330
1F
100
AcDbEntity
  8
0
  6
Continuous
 62
     7
370
    15
100
AcDbLine
 10
284.5496792765
 20
186.2081722603
 30
0.0
 11
284.3296934338
 21
186.2081722603
 31
0.0
  0
LINE
  5
252
330
1F
100
AcDbEntity
  8
0
  6
Continuous
 62
     7
370
    15
100
AcDbLine
 10
107.0380617352
 20
186.2081722603
 30
0.0
 11
106.8180758925
 21
186.2081722603
 31
0.0
  0
SPLINE
  5
253
330
1F
100
AcDbEntity
  8
0
  6
Continuous
 62
     8
370
     0
100
AcDbSpline
210
0.0
220
0.0
230
1.0
 70
     8
 71
     3
 72
    14
 73
    10
 74
     0
 42
0.00000001
 43
0.00000001
 40
0.0
 40
0.0
 40
0.0
 40
0.0
 40
0.25
 40
0.25
 40
0.5
 40
0.5
 40
0.75
 40
0.75
 40
1.0
 40
1.0
 40
1.0
 40
1.0
 10
205.1334738899085
 20
187.4711874922266
 30
0.0
 10
205.1334738899085
 20
187.7055026252401
 30
0.0
 10
205.1645633724155
 20
187.9344009584202
 30
0.0
 10
205.2869636734231
 20
188.3816915895507
 30
0.0
 10
205.3791306551514
 20
188.5989175301743
 30
0.0
 10
205.6150685776377
 20
188.997202165268
 30
0.0
 10
205.7625363881549
 20
189.183923024611
 30
0.0
 10
206.0970647180479
 20
189.5068370286197
 30
0.0
 10
206.2842557492259
 20
189.6451658740775
 30
0.0
 10
206.4926071728132
 20
189.7589038551639
 30
0.0
  0
LINE
  5
254
330
1F
100
AcDbEntity
  8
0
  6
Continuous
 62
     8
370
     0
100
AcDbLine
 10
205.1334738685
 20
141.6399474502
 30
0.0
 11
205.1334738685
 21
187.4711876981
 31
0.0
  0
SPLINE
  5
255
330
1F
100
AcDbEntity
  8
0
  6
Continuous
 62
     8
370
     0
100
AcDbSpline
210
0.0
220
0.0
230
1.0
 70
     8
 71
     3
 72
    26
 73
    22
 74
     0
 42
0.00000001
 43
0.00000001
 40
0.0
 40
0.0
 40
0.0
 40
0.0
 40
0.1250000000000009
 40
0.1250000000000009
 40
0.1875000000000014
 40
0.1875000000000014
 40
0.2500000000000019
 40
0.2500000000000019
 40
0.3750000000000025
 40
0.3750000000000025
 40
0.5000000000000031
 40
0.5000000000000031
 40
0.6250000000000037
 40
0.6250000000000037
 40
0.687500000000004
 40
0.687500000000004
 40
0.7500000000000043
 40
0.7500000000000043
 40
0.8750000000000022
 40
0.8750000000000022
 40
1.0
 40
1.0
 40
1.0
 40
1.0
 10
198.6997068702419
 20
135.3924002110521
 30
0.0
 10
199.1240428292808
 20
135.3913991132493
 30
0.0
 10
199.5413170510033
 20
135.430772128908
 30
0.0
 10
200.1570679678292
 20
135.5479465184351
 30
0.0
 10
200.3606123456614
 20
135.5967625634203
 30
0.0
 10
200.7642119836414
 20
135.7143626742631
 30
0.0
 10
200.9648378876982
 20
135.7834864834218
 30
0.0
 10
201.5485555873329
 20
136.0166820258963
 30
0.0
 10
201.9177850977675
 20
136.2072678234343
 30
0.0
 10
202.6167538190971
 20
136.6582017507415
 30
0.0
 10
202.9478683321867
 20
136.9210079153944
 30
0.0
 10
203.5416454864992
 20
137.4958848845425
 30
0.0
 10
203.8082060500797
 20
137.8098774079583
 30
0.0
 10
204.1614361945519
 20
138.3217783739662
 30
0.0
 10
204.2711866546019
 20
138.4993042154665
 30
0.0
 10
204.4701305994685
 20
138.8602944424032
 30
0.0
 10
204.5600201475164
 20
139.0447074963185
 30
0.0
 10
204.8013708246134
 20
139.6095436177523
 30
0.0
 10
204.9252325948561
 20
140.0037020201919
 30
0.0
 10
205.0917018295278
 20
140.8145759850306
 30
0.0
 10
205.1334738899091
 20
141.2248292449835
 30
0.0
 10
205.1334738899091
 20
141.6399472534765
 30
0.0
  0
LWPOLYLINE
  5
256
330
1F
100
AcDbEntity
  8
0
  6
Continuous
 62
     8
370
     0
100
AcDbPolyline
 90
        9
 70
   128
 43
0.0
 10
192.668050197
 20
135.3924009264
 10
193.4219865548
 20
135.3939580977
 10
194.1759406077
 20
135.3950682343
 10
194.9299067678
 20
135.3957350612
 10
195.6838785159
 20
135.3959585786
 10
196.4378511952
 20
135.3957350612
 10
197.1918168897
 20
135.3950682343
 10
197.9457709426
 20
135.3939580977
 10
198.6997068347
 20
135.3924009264
  0
SPLINE
  5
257
330
1F
100
AcDbEntity
  8
0
  6
Continuous
 62
     8
370
     0
100
AcDbSpline
210
0.0
220
0.0
230
1.0
 70
     8
 71
     3
 72
    26
 73
    22
 74
     0
 42
0.00000001
 43
0.00000001
 40
0.0
 40
0.0
 40
0.0
 40
0.0
 40
0.1249999999999975
 40
0.1249999999999975
 40
0.1874999999999974
 40
0.1874999999999974
 40
0.2499999999999972
 40
0.2499999999999972
 40
0.3749999999999969
 40
0.3749999999999969
 40
0.4999999999999967
 40
0.4999999999999967
 40
0.6249999999999963
 40
0.6249999999999963
 40
0.6874999999999967
 40
0.6874999999999967
 40
0.749999999999997
 40
0.749999999999997
 40
0.8749999999999984
 40
0.8749999999999984
 40
1.0
 40
1.0
 40
1.0
 40
1.0
 10
186.2342832696367
 20
141.6399472534763
 30
0.0
 10
186.2342832696367
 20
141.2248276990988
 30
0.0
 10
186.2760504057268
 20
140.8169982294286
 30
0.0
 10
186.3987586448717
 20
140.2157184658262
 30
0.0
 10
186.4497455891762
 20
140.0170486128683
 30
0.0
 10
186.57234391075
 20
139.6232943278322
 30
0.0
 10
186.6442973849666
 20
139.4276907255127
 30
0.0
 10
186.8866799699619
 20
138.8590089837587
 30
0.0
 10
187.0844007991516
 20
138.499751390469
 30
0.0
 10
187.5513858431551
 20
137.8204576526012
 30
0.0
 10
187.8231015496848
 20
137.4992124905739
 30
0.0
 10
188.4164165543175
 20
136.9239608577037
 30
0.0
 10
188.7400707293415
 20
136.6661106361009
 30
0.0
 10
189.2669730137969
 20
136.3249167477994
 30
0.0
 10
189.4494857567836
 20
136.2190586714748
 30
0.0
 10
189.8204176215011
 20
136.0272988995555
 30
0.0
 10
190.0098048081284
 20
135.9407345998918
 30
0.0
 10
190.5895496489708
 20
135.7085382530508
 30
0.0
 10
190.9937302881802
 20
135.5897067806469
 30
0.0
 10
191.8239959289467
 20
135.4307712123226
 30
0.0
 10
192.2437136773645
 20
135.3913991117089
 30
0.0
 10
192.6680502893039
 20
135.3924002110521
 30
0.0
  0
LINE
  5
258
330
1F
100
AcDbEntity
  8
0
  6
Continuous
 62
     8
370
     0
100
AcDbLine
 10
186.2342838617
 20
187.4711876981
 30
0.0
 11
186.2342838617
 21
141.6399474502
 31
0.0
  0
SPLINE
  5
259
330
1F
100
AcDbEntity
  8
0
  6
Continuous
 62
     8
370
     0
100
AcDbSpline
210
0.0
220
0.0
230
1.0
 70
     8
 71
     3
 72
    16
 73
    12
 74
     0
 42
0.00000001
 43
0.00000001
 40
0.0
 40
0.0
 40
0.0
 40
0.0
 40
0.2500000000000014
 40
0.2500000000000014
 40
0.3750000000000022
 40
0.3750000000000022
 40
0.5000000000000029
 40
0.5000000000000029
 40
0.7500000000000014
 40
0.7500000000000014
 40
1.0
 40
1.0
 40
1.0
 40
1.0
 10
184.8751499867315
 20
189.7589038551637
 30
0.0
 10
185.0831903469594
 20
189.645335681981
 30
0.0
 10
185.2706952196795
 20
189.506936635319
 30
0.0
 10
185.5224773713654
 20
189.2637422810453
 30
0.0
 10
185.6018333480822
 20
189.1760239925712
 30
0.0
 10
185.7462005600728
 20
188.9931135566348
 30
0.0
 10
185.8116974164119
 20
188.8975879184869
 30
0.0
 10
185.9885430899916
 20
188.5990622935585
 30
0.0
 10
186.080858511833
 20
188.3812549846509
 30
0.0
 10
186.2028163913706
 20
187.9359785561734
 30
0.0
 10
186.2342832696363
 20
187.7051637080283
 30
0.0
 10
186.2342832696363
 20
187.4711874922264
 30
0.0
  0
SPLINE
  5
25A
330
1F
100
AcDbEntity
  8
0
  6
Continuous
 62
     8
370
     0
100
AcDbSpline
210
0.0
220
0.0
230
1.0
 70
     8
 71
     3
 72
   100
 73
    96
 74
     0
 42
0.00000001
 43
0.00000001
 40
0.0
 40
0.0
 40
0.0
 40
0.0
 40
0.0312499999999999
 40
0.0312499999999999
 40
0.0468749999999999
 40
0.0468749999999999
 40
0.0624999999999999
 40
0.0624999999999999
 40
0.0937499999999998
 40
0.0937499999999998
 40
0.1093749999999998
 40
0.1093749999999998
 40
0.1249999999999997
 40
0.1249999999999997
 40
0.1562499999999996
 40
0.1562499999999996
 40
0.1718749999999997
 40
0.1718749999999997
 40
0.1874999999999997
 40
0.1874999999999997
 40
0.2187499999999997
 40
0.2187499999999997
 40
0.2343749999999998
 40
0.2343749999999998
 40
0.2499999999999998
 40
0.2499999999999998
 40
0.2812499999999998
 40
0.2812499999999998
 40
0.2968749999999998
 40
0.2968749999999998
 40
0.3124999999999998
 40
0.3124999999999998
 40
0.3437499999999998
 40
0.3437499999999998
 40
0.3593749999999998
 40
0.3593749999999998
 40
0.3749999999999997
 40
0.3749999999999997
 40
0.4062499999999996
 40
0.4062499999999996
 40
0.4218749999999996
 40
0.4218749999999996
 40
0.4374999999999995
 40
0.4374999999999995
 40
0.4687499999999993
 40
0.4687499999999993
 40
0.4843749999999992
 40
0.4843749999999992
 40
0.4999999999999991
 40
0.4999999999999991
 40
0.5312499999999989
 40
0.5312499999999989
 40
0.5468749999999989
 40
0.5468749999999989
 40
0.5624999999999988
 40
0.5624999999999988
 40
0.5937499999999987
 40
0.5937499999999987
 40
0.6093749999999987
 40
0.6093749999999987
 40
0.6249999999999986
 40
0.6249999999999986
 40
0.6562499999999988
 40
0.6562499999999988
 40
0.6718749999999988
 40
0.6718749999999988
 40
0.6874999999999989
 40
0.6874999999999989
 40
0.718749999999999
 40
0.718749999999999
 40
0.734374999999999
 40
0.734374999999999
 40
0.7499999999999991
 40
0.7499999999999991
 40
0.7812499999999992
 40
0.7812499999999992
 40
0.7968749999999993
 40
0.7968749999999993
 40
0.8124999999999993
 40
0.8124999999999993
 40
0.8437499999999993
 40
0.8437499999999993
 40
0.8593749999999994
 40
0.8593749999999994
 40
0.8749999999999994
 40
0.8749999999999994
 40
0.9062499999999996
 40
0.9062499999999996
 40
0.9218749999999996
 40
0.9218749999999996
 40
0.9374999999999997
 40
0.9374999999999997
 40
0.9687499999999998
 40
0.9687499999999998
 40
1.0
 40
1.0
 40
1.0
 40
1.0
 10
206.4926071728132
 20
189.7589038551639
 30
0.0
 10
207.5929167718876
 20
190.3595572618653
 30
0.0
 10
208.6314163772892
 20
191.044798055848
 30
0.0
 10
210.0988960108905
 20
192.1969964839238
 30
0.0
 10
210.5728659849292
 20
192.6021753611249
 30
0.0
 10
211.4770488664532
 20
193.4417402703461
 30
0.0
 10
211.9091605089315
 20
193.8775365277571
 30
0.0
 10
213.1471635975658
 20
195.2318779011074
 30
0.0
 10
213.8951167905115
 20
196.1970588881308
 30
0.0
 10
214.9000274107678
 20
197.739802632934
 30
0.0
 10
215.2165682005381
 20
198.2723772781569
 30
0.0
 10
215.8002243905088
 20
199.3533278127204
 30
0.0
 10
216.0681959274463
 20
199.9025816757126
 30
0.0
 10
216.8023226127033
 20
201.5761667467507
 30
0.0
 10
217.1991556969143
 20
202.7261551275437
 30
0.0
 10
217.6539337161817
 20
204.5035775587648
 30
0.0
 10
217.7823732440783
 20
205.1072183218319
 30
0.0
 10
217.9885578298877
 20
206.3210243056132
 30
0.0
 10
218.0661221789917
 20
206.9287741998278
 30
0.0
 10
218.2239805312767
 20
208.7545477387461
 30
0.0
 10
218.2299312797951
 20
209.9750873316617
 30
0.0
 10
218.0877620440453
 20
211.8110116340317
 30
0.0
 10
218.0148416577508
 20
212.4252078192653
 30
0.0
 10
217.8174239366096
 20
213.6494270584153
 30
0.0
 10
217.693921357511
 20
214.2540224940169
 30
0.0
 10
217.2507682121256
 20
216.0457352364142
 30
0.0
 10
216.8589442805774
 20
217.2109297516426
 30
0.0
 10
216.1247642111823
 20
218.9138798362991
 30
0.0
 10
215.8551673202173
 20
219.4746652691723
 30
0.0
 10
215.2665239715936
 20
220.5778949485638
 30
0.0
 10
214.9509504122948
 20
221.1139583010373
 30
0.0
 10
213.9421372214023
 20
222.6765980430072
 30
0.0
 10
213.1872107500193
 20
223.6579249430752
 30
0.0
 10
211.9302783471904
 20
225.0380558310609
 30
0.0
 10
211.4900948120365
 20
225.4830383333075
 30
0.0
 10
210.5679669739933
 20
226.3397403804289
 30
0.0
 10
210.0919183433756
 20
226.7460359263069
 30
0.0
 10
208.6201243386535
 20
227.900564230358
 30
0.0
 10
207.5810210345001
 20
228.5848651986097
 30
0.0
 10
205.9352298690813
 20
229.4824092531948
 30
0.0
 10
205.3717115259258
 20
229.760143962151
 30
0.0
 10
204.2158324468865
 20
230.270336431136
 30
0.0
 10
203.6311324171125
 20
230.4994453453491
 30
0.0
 10
201.8573773536399
 20
231.1111454876571
 30
0.0
 10
200.648799974217
 20
231.4186159139119
 30
0.0
 10
198.7967951068073
 20
231.7290159156083
 30
0.0
 10
198.172879088959
 20
231.8072242788817
 30
0.0
 10
196.9116042912199
 20
231.911437732764
 30
0.0
 10
196.2832717661886
 20
231.9366990436324
 30
0.0
 10
194.4049708955721
 20
231.9344762874796
 30
0.0
 10
193.1616539596274
 20
231.8295074575396
 30
0.0
 10
191.3100029084907
 20
231.5169071289587
 30
0.0
 10
190.6950179479847
 20
231.3867185826951
 30
0.0
 10
189.4696567752444
 20
231.0727100800707
 30
0.0
 10
188.8679905015932
 20
230.8911165919114
 30
0.0
 10
187.0955429620166
 20
230.2751451592775
 30
0.0
 10
185.9568391576499
 20
229.7699800690651
 30
0.0
 10
184.3130526746102
 20
228.8710530129682
 30
0.0
 10
183.7758895165055
 20
228.5477626319879
 30
0.0
 10
182.7237605177082
 20
227.8524901266763
 30
0.0
 10
182.2151916234006
 20
227.4846599978285
 30
0.0
 10
180.7457724185366
 20
226.3264780666357
 30
0.0
 10
179.838364288098
 20
225.4801552936985
 30
0.0
 10
178.5847153897584
 20
224.1007204069367
 30
0.0
 10
178.1848320825044
 20
223.6224922363592
 30
0.0
 10
177.4220380914598
 20
222.6282890629377
 30
0.0
 10
177.062091751792
 20
222.1158846404905
 30
0.0
 10
176.0557949288265
 20
220.5496872038
 30
0.0
 10
175.4776314980174
 20
219.4608179724901
 30
0.0
 10
174.7470009045942
 20
217.7620370874214
 30
0.0
 10
174.5263391594955
 20
217.1848084794969
 30
0.0
 10
174.1317550007802
 20
216.0080092335747
 30
0.0
 10
173.9582560140327
 20
215.4087095133364
 30
0.0
 10
173.5173451493888
 20
213.6113066148458
 30
0.0
 10
173.3249625965425
 20
212.4025312982396
 30
0.0
 10
173.1846484827844
 20
210.5742225456876
 30
0.0
 10
173.1627114230932
 20
209.9622470842207
 30
0.0
 10
173.1693257535843
 20
208.7331413943535
 30
0.0
 10
173.1982367785823
 20
208.1135228560242
 30
0.0
 10
173.3599838789348
 20
206.2772168058485
 30
0.0
 10
173.566529102715
 20
205.0762115417305
 30
0.0
 10
174.0200608700647
 20
203.3082475028289
 30
0.0
 10
174.1953140966722
 20
202.724543725089
 30
0.0
 10
174.5947289315621
 20
201.5684829209357
 30
0.0
 10
174.8199584567754
 20
200.9937894550993
 30
0.0
 10
175.5635280450242
 20
199.3052712271069
 30
0.0
 10
176.1456119289252
 20
198.232644080774
 30
0.0
 10
177.145137909903
 20
196.7006975891261
 30
0.0
 10
177.4994900192503
 20
196.2029475214778
 30
0.0
 10
178.251350800558
 20
195.2336104828063
 30
0.0
 10
178.6500463891846
 20
194.7607381571551
 30
0.0
 10
179.9055380264646
 20
193.3913661377979
 30
0.0
 10
180.80835667101
 20
192.5570217759132
 30
0.0
 10
182.7429674276215
 20
191.0411654357421
 30
0.0
 10
183.7747265052256
 20
190.3596194297045
 30
0.0
 10
184.8751499867315
 20
189.7589038551638
 30
0.0
  0
LINE
  5
25B
330
1F
100
AcDbEntity
  8
0
  6
Continuous
 62
     8
370
     0
100
AcDbLine
 10
192.6748786541
 20
133.9731659055
 30
0.0
 11
198.6928783776
 21
133.9731659055
 31
0.0
  0
LINE
  5
25C
330
1F
100
AcDbEntity
  8
0
  6
Continuous
 62
     8
370
     0
100
AcDbLine
 10
192.6748786541
 20
133.9731659055
 30
0.0
 11
192.6748786541
 21
133.9293304146
 31
0.0
  0
LINE
  5
25D
330
1F
100
AcDbEntity
  8
0
  6
Continuous
 62
     8
370
     0
100
AcDbLine
 10
198.6928783776
 20
133.9731659055
 30
0.0
 11
198.6928783776
 21
133.9293304146
 31
0.0
  0
LINE
  5
25E
330
1F
100
AcDbEntity
  8
0
  6
Continuous
 62
     8
370
     0
100
AcDbLine
 10
237.7329130145
 20
230.576429075
 30
0.0
 11
304.0718321176
 21
230.576429075
 31
0.0
  0
LINE
  5
25F
330
1F
100
AcDbEntity
  8
0
  6
Continuous
 62
     8
370
     0
100
AcDbLine
 10
87.2829143377
 20
230.576429075
 30
0.0
 11
153.6218297156
 21
230.576429075
 31
0.0
  0
SPLINE
  5
260
330
1F
100
AcDbEntity
  8
0
  6
Continuous
 62
     8
370
     0
100
AcDbSpline
210
0.0
220
0.0
230
1.0
 70
     8
 71
     3
 72
    15
 73
    11
 74
     0
 42
0.00000001
 43
0.00000001
 40
0.0
 40
0.0
 40
0.0
 40
0.0
 40
0.1321250793773695
 40
0.2646465973143983
 40
0.397905696354997
 40
0.532059361496469
 40
0.6671067725225841
 40
0.8029126941444981
 40
0.9013195707601204
 40
1.0
 40
1.0
 40
1.0
 40
1.0
 10
104.9123675336475
 20
194.2321822198355
 30
0.0
 10
104.9131194973054
 20
194.2321825901675
 30
0.0
 10
104.9146256808724
 20
194.2321833319428
 30
0.0
 10
104.9267562635881
 20
194.2321734599742
 30
0.0
 10
104.9462302498843
 20
194.2321711427386
 30
0.0
 10
104.9740231391113
 20
194.2321764493362
 30
0.0
 10
105.0099344459082
 20
194.2321693181361
 30
0.0
 10
105.0501141901928
 20
194.2321755936429
 30
0.0
 10
105.0921583064546
 20
194.2321703965511
 30
0.0
 10
105.1203563426377
 20
194.2321725875092
 30
0.0
 10
105.1344749298404
 20
194.2321736845087
 30
0.0
  0
SPLINE
  5
261
330
1F
100
AcDbEntity
  8
0
  6
Continuous
 62
     8
370
     0
100
AcDbSpline
210
0.0
220
0.0
230
1.0
 70
     8
 71
     3
 72
     8
 73
     4
 74
     0
 42
0.00000001
 43
0.00000001
 40
0.0
 40
0.0
 40
0.0
 40
0.0
 40
1.0
 40
1.0
 40
1.0
 40
1.0
 10
226.3697780125738
 20
206.268172383
 30
0.0
 10
226.3697787456782
 20
206.2681678972634
 30
0.0
 10
226.41841227441
 20
206.212299247996
 30
0.0
 10
226.4881729674798
 20
206.1106331159843
 30
0.0
  0
SPLINE
  5
262
330
1F
100
AcDbEntity
  8
0
  6
Continuous
 62
     8
370
     0
100
AcDbSpline
210
0.0
220
0.0
230
1.0
 70
     8
 71
     3
 72
     8
 73
     4
 74
     0
 42
0.00000001
 43
0.00000001
 40
0.0
 40
0.0
 40
0.0
 40
0.0
 40
1.0
 40
1.0
 40
1.0
 40
1.0
 10
164.997979146971
 20
206.268172383
 30
0.0
 10
164.9979758268798
 20
206.268172383
 30
0.0
 10
164.9493439933744
 20
206.2123029397929
 30
0.0
 10
164.879584192065
 20
206.1106331159843
 30
0.0
  0
LINE
  5
263
330
1F
100
AcDbEntity
  8
0
  6
Continuous
 62
     8
370
     0
100
AcDbLine
 10
254.8608776601
 20
220.3416391522
 30
0.0
 11
255.0872933539
 21
220.3416391522
 31
0.0
  0
LINE
  5
264
330
1F
100
AcDbEntity
  8
0
  6
Continuous
 62
     8
370
     0
100
AcDbLine
 10
286.7304642173
 20
220.3416391522
 30
0.0
 11
286.956879911
 21
220.3416391522
 31
0.0
  0
LINE
  5
265
330
1F
100
AcDbEntity
  8
0
  6
Continuous
 62
     8
370
     0
100
AcDbLine
 10
276.4933441253
 20
220.3416391522
 30
0.0
 11
281.1459932895
 21
220.3416391522
 31
0.0
  0
LINE
  5
266
330
1F
100
AcDbEntity
  8
0
  6
Continuous
 62
     8
370
     0
100
AcDbLine
 10
260.6717605563
 20
220.3416391522
 30
0.0
 11
265.3244097205
 21
220.3416391522
 31
0.0
  0
LINE
  5
267
330
1F
100
AcDbEntity
  8
0
  6
Continuous
 62
     8
370
     0
100
AcDbLine
 10
104.410875258
 20
220.3416391522
 30
0.0
 11
104.6372909518
 21
220.3416391522
 31
0.0
  0
LINE
  5
268
330
1F
100
AcDbEntity
  8
0
  6
Continuous
 62
     8
370
     0
100
AcDbLine
 10
136.2804655405
 20
220.3416391522
 30
0.0
 11
136.5068812342
 21
220.3416391522
 31
0.0
  0
LINE
  5
269
330
1F
100
AcDbEntity
  8
0
  6
Continuous
 62
     8
370
     0
100
AcDbLine
 10
126.0433454486
 20
220.3416391522
 30
0.0
 11
130.6959946128
 21
220.3416391522
 31
0.0
  0
LINE
  5
26A
330
1F
100
AcDbEntity
  8
0
  6
Continuous
 62
     8
370
     0
100
AcDbLine
 10
110.2217618795
 20
220.3416391522
 30
0.0
 11
114.8744110437
 21
220.3416391522
 31
0.0
  0
LINE
  5
26B
330
1F
100
AcDbEntity
  8
0
  6
Continuous
 62
     8
370
     0
100
AcDbLine
 10
260.6717605563
 20
211.2517054439
 30
0.0
 11
265.3244097205
 21
211.2517054439
 31
0.0
  0
LINE
  5
26C
330
1F
100
AcDbEntity
  8
0
  6
Continuous
 62
     8
370
     0
100
AcDbLine
 10
276.4933441253
 20
211.2517054439
 30
0.0
 11
281.1459932895
 21
211.2517054439
 31
0.0
  0
LINE
  5
26D
330
1F
100
AcDbEntity
  8
0
  6
Continuous
 62
     8
370
     0
100
AcDbLine
 10
286.7304642173
 20
211.2517054439
 30
0.0
 11
286.956879911
 21
211.2517054439
 31
0.0
  0
LINE
  5
26E
330
1F
100
AcDbEntity
  8
0
  6
Continuous
 62
     8
370
     0
100
AcDbLine
 10
254.8608776601
 20
211.2517054439
 30
0.0
 11
255.0872933539
 21
211.2517054439
 31
0.0
  0
LINE
  5
26F
330
1F
100
AcDbEntity
  8
0
  6
Continuous
 62
     8
370
     0
100
AcDbLine
 10
110.2217618795
 20
211.2517054439
 30
0.0
 11
114.8744110437
 21
211.2517054439
 31
0.0
  0
LINE
  5
270
330
1F
100
AcDbEntity
  8
0
  6
Continuous
 62
     8
370
     0
100
AcDbLine
 10
126.0433454486
 20
211.2517054439
 30
0.0
 11
130.6959946128
 21
211.2517054439
 31
0.0
  0
LINE
  5
271
330
1F
100
AcDbEntity
  8
0
  6
Continuous
 62
     8
370
     0
100
AcDbLine
 10
136.2804655405
 20
211.2517054439
 30
0.0
 11
136.5068812342
 21
211.2517054439
 31
0.0
  0
LINE
  5
272
330
1F
100
AcDbEntity
  8
0
  6
Continuous
 62
     8
370
     0
100
AcDbLine
 10
104.410875258
 20
211.2517054439
 30
0.0
 11
104.6372909518
 21
211.2517054439
 31
0.0
  0
SPLINE
  5
273
330
1F
100
AcDbEntity
  8
0
  6
Continuous
 62
     8
370
     0
100
AcDbSpline
210
0.0
220
0.0
230
1.0
 70
     8
 71
     3
 72
     8
 73
     4
 74
     0
 42
0.00000001
 43
0.00000001
 40
0.0
 40
0.0
 40
0.0
 40
0.0
 40
1.0
 40
1.0
 40
1.0
 40
1.0
 10
270.9075185500068
 20
206.268172383
 30
0.0
 10
270.9079807628167
 20
206.268172383
 30
0.0
 10
270.9084507744849
 20
206.2561781893146
 30
0.0
 10
270.9088809440711
 20
206.2334055476469
 30
0.0
  0
SPLINE
  5
274
330
1F
100
AcDbEntity
  8
0
  6
Continuous
 62
     8
370
     0
100
AcDbSpline
210
0.0
220
0.0
230
1.0
 70
    24
 71
     3
 72
     8
 73
     4
 74
     0
 42
0.00000001
 43
0.00000001
 40
0.0
 40
0.0
 40
0.0
 40
0.0
 40
1.0
 40
1.0
 40
1.0
 40
1.0
 10
120.4602365866929
 20
206.2333832268733
 30
0.0
 10
120.4602365866179
 20
206.2561035772299
 30
0.0
 10
120.4602365866173
 20
206.2681635288273
 30
0.0
 10
120.4602365866922
 20
206.2681723779323
 30
0.0
  0
LINE
  5
275
330
1F
100
AcDbEntity
  8
0
  6
Continuous
 62
     8
370
     0
100
AcDbLine
 10
104.9123812886
 20
188.1138724521
 30
0.0
 11
105.134468195
 21
188.1138724521
 31
0.0
  0
ENDSEC
  0
SECTION
  2
OBJECTS
  0
DICTIONARY
  5
C
330
0
100
AcDbDictionary
281
     1
  3
ACAD_GROUP
350
D
  3
ACAD_LAYOUT
350
1A
  3
ACAD_MATERIAL
350
3B
  3
ACAD_MLEADERSTYLE
350
277
  3
ACAD_MLINESTYLE
350
17
  3
ACAD_PLOTSETTINGS
350
19
  3
ACAD_PLOTSTYLENAME
350
E
  3
ACAD_TABLESTYLE
350
276
  3
ACAD_VISUALSTYLE
350
2A
  0
DICTIONARY
  5
D
102
{ACAD_REACTORS
330
C
102
}
330
C
100
AcDbDictionary
281
     1
  0
DICTIONARY
  5
1A
102
{ACAD_REACTORS
330
C
102
}
330
C
100
AcDbDictionary
281
     1
  3
Layout1
350
1E
  3
Layout2
350
26
  3
Model
350
22
  0
DICTIONARY
  5
3B
102
{ACAD_REACTORS
330
C
102
}
330
C
100
AcDbDictionary
281
     1
  3
ByBlock
350
3D
  3
ByLayer
350
3C
  3
Global
350
3E
  0
DICTIONARY
  5
277
102
{ACAD_REACTORS
330
C
102
}
330
C
100
AcDbDictionary
281
     1
  0
DICTIONARY
  5
17
102
{ACAD_REACTORS
330
C
102
}
330
C
100
AcDbDictionary
281
     1
  3
Standard
350
18
  0
DICTIONARY
  5
19
102
{ACAD_REACTORS
330
C
102
}
330
C
100
AcDbDictionary
281
     1
  0
ACDBDICTIONARYWDFLT
  5
E
102
{ACAD_REACTORS
330
C
102
}
330
C
100
AcDbDictionary
281
     1
  3
Normal
350
F
100
AcDbDictionaryWithDefault
340
F
  0
DICTIONARY
  5
276
102
{ACAD_REACTORS
330
C
102
}
330
C
100
AcDbDictionary
281
     1
  0
DICTIONARY
  5
2A
102
{ACAD_REACTORS
330
C
102
}
330
C
100
AcDbDictionary
281
     1
  3
2dWireframe
350
2F
  3
3D Hidden
350
31
  3
3dWireframe
350
30
  3
Basic
350
32
  3
Brighten
350
36
  3
ColorChange
350
3A
  3
Conceptual
350
34
  3
Dim
350
35
  3
Facepattern
350
39
  3
Flat
350
2B
  3
FlatWithEdges
350
2C
  3
Gouraud
350
2D
  3
GouraudWithEdges
350
2E
  3
Linepattern
350
38
  3
Realistic
350
33
  3
Thicken
350
37
  0
LAYOUT
  5
1E
102
{ACAD_REACTORS
330
1A
102
}
330
1A
100
AcDbPlotSettings
  1

  2
none_device
  4

  6

 40
0.0
 41
0.0
 42
0.0
 43
0.0
 44
0.0
 45
0.0
 46
0.0
 47
0.0
 48
0.0
 49
0.0
140
0.0
141
0.0
142
1.0
143
1.0
 70
   688
 72
     0
 73
     0
 74
     5
  7

 75
    16
 76
     0
 77
     2
 78
   300
147
1.0
148
0.0
149
0.0
100
AcDbLayout
  1
Layout1
 70
     1
 71
     1
 10
0.0
 20
0.0
 11
420.0
 21
297.0
 12
0.0
 22
0.0
 32
0.0
 14
1.0000000000E+20
 24
1.0000000000E+20
 34
1.0000000000E+20
 15
-1.0000000000E+20
 25
-1.0000000000E+20
 35
-1.0000000000E+20
146
0.0
 13
0.0
 23
0.0
 33
0.0
 16
1.0
 26
0.0
 36
0.0
 17
0.0
 27
1.0
 37
0.0
 76
     0
330
1B
  0
LAYOUT
  5
26
102
{ACAD_REACTORS
330
1A
102
}
330
1A
100
AcDbPlotSettings
  1

  2
none_device
  4

  6

 40
0.0
 41
0.0
 42
0.0
 43
0.0
 44
0.0
 45
0.0
 46
0.0
 47
0.0
 48
0.0
 49
0.0
140
0.0
141
0.0
142
1.0
143
1.0
 70
   688
 72
     0
 73
     0
 74
     5
  7

 75
    16
 76
     0
 77
     2
 78
   300
147
1.0
148
0.0
149
0.0
100
AcDbLayout
  1
Layout2
 70
     1
 71
     2
 10
0.0
 20
0.0
 11
0.0
 21
0.0
 12
0.0
 22
0.0
 32
0.0
 14
0.0
 24
0.0
 34
0.0
 15
0.0
 25
0.0
 35
0.0
146
0.0
 13
0.0
 23
0.0
 33
0.0
 16
1.0
 26
0.0
 36
0.0
 17
0.0
 27
1.0
 37
0.0
 76
     0
330
23
  0
LAYOUT
  5
22
102
{ACAD_REACTORS
330
1A
102
}
330
1A
100
AcDbPlotSettings
  1

  2
none_device
  4

  6

 40
0.0
 41
0.0
 42
0.0
 43
0.0
 44
0.0
 45
0.0
 46
0.0
 47
0.0
 48
0.0
 49
0.0
140
0.0
141
0.0
142
1.0
143
1.0
 70
  1712
 72
     0
 73
     0
 74
     0
  7

 75
     0
 76
     0
 77
     2
 78
   300
147
1.0
148
0.0
149
0.0
100
AcDbLayout
  1
Model
 70
     1
 71
     0
 10
0.0
 20
0.0
 11
594.0
 21
841.0
 12
0.0
 22
0.0
 32
0.0
 14
0.0
 24
0.0
 34
0.0
 15
594.0
 25
841.0
 35
0.0
146
0.0
 13
0.0
 23
0.0
 33
0.0
 16
1.0
 26
0.0
 36
0.0
 17
0.0
 27
1.0
 37
0.0
 76
     0
330
1F
331
29
  0
MATERIAL
  5
3D
102
{ACAD_REACTORS
330
3B
102
}
330
3B
100
AcDbMaterial
  1
ByBlock
 72
     1
 94
      127
  0
MATERIAL
  5
3C
102
{ACAD_REACTORS
330
3B
102
}
330
3B
100
AcDbMaterial
  1
ByLayer
 72
     1
 94
      127
  0
MATERIAL
  5
3E
102
{ACAD_REACTORS
330
3B
102
}
330
3B
100
AcDbMaterial
  1
Global
 72
     1
 94
      127
  0
MLINESTYLE
  5
18
102
{ACAD_REACTORS
330
17
102
}
330
17
100
AcDbMlineStyle
  2
Standard
 70
     0
  3

 62
   256
 51
90.0
 52
90.0
 71
     2
 49
0.5
 62
   256
  6
BYLAYER
 49
-0.5
 62
   256
  6
BYLAYER
  0
ACDBPLACEHOLDER
  5
F
102
{ACAD_REACTORS
330
E
102
}
330
E
  0
VISUALSTYLE
  5
2F
102
{ACAD_REACTORS
330
2A
102
}
330
2A
100
AcDbVisualStyle
  2
2dWireframe
 70
     4
177
     2
291
     0
 71
     0
176
     1
 72
     2
176
     1
 73
     0
176
     1
 90
        0
176
     1
 40
-0.6
176
     1
 41
-30.0
176
     1
 62
     5
 63
     7
421
 16777215
176
     1
 74
     1
176
     1
 91
        4
176
     1
 64
     7
176
     1
 65
   257
176
     1
 75
     1
176
     1
175
     1
176
     1
 42
1.0
176
     1
 92
        0
176
     1
 66
   257
176
     1
 43
1.0
176
     1
 76
     1
176
     1
 77
     6
176
     1
 78
     2
176
     1
 67
     7
176
     1
 79
     5
176
     1
170
     0
176
     1
171
     0
176
     1
290
     0
176
     1
 93
        1
176
     1
 44
0.0
176
     1
173
     0
176
     1
  0
VISUALSTYLE
  5
31
102
{ACAD_REACTORS
330
2A
102
}
330
2A
100
AcDbVisualStyle
  2
3D Hidden
 70
     6
177
     2
291
     0
 71
     1
176
     1
 72
     2
176
     1
 73
     2
176
     1
 90
        0
176
     1
 40
-0.6
176
     1
 41
-30.0
176
     1
 62
     5
 63
     7
421
 16777215
176
     1
 74
     2
176
     1
 91
        2
176
     1
 64
     7
176
     1
 65
   257
176
     1
 75
     2
176
     1
175
     1
176
     1
 42
40.0
176
     1
 92
        0
176
     1
 66
   257
176
     1
 43
1.0
176
     1
 76
     1
176
     1
 77
     6
176
     1
 78
     2
176
     1
 67
     7
176
     1
 79
     3
176
     1
170
     0
176
     1
171
     0
176
     1
290
     0
176
     1
 93
        1
176
     1
 44
0.0
176
     1
173
     0
176
     1
  0
VISUALSTYLE
  5
30
102
{ACAD_REACTORS
330
2A
102
}
330
2A
100
AcDbVisualStyle
  2
3dWireframe
 70
     5
177
     2
291
     0
 71
     0
176
     1
 72
     2
176
     1
 73
     0
176
     1
 90
        0
176
     1
 40
-0.6
176
     1
 41
-30.0
176
     1
 62
     5
 63
     7
421
 16777215
176
     1
 74
     1
176
     1
 91
        4
176
     1
 64
     7
176
     1
 65
   257
176
     1
 75
     1
176
     1
175
     1
176
     1
 42
1.0
176
     1
 92
        0
176
     1
 66
   257
176
     1
 43
1.0
176
     1
 76
     1
176
     1
 77
     6
176
     1
 78
     2
176
     1
 67
     7
176
     1
 79
     5
176
     1
170
     0
176
     1
171
     0
176
     1
290
     0
176
     1
 93
        1
176
     1
 44
0.0
176
     1
173
     0
176
     1
  0
VISUALSTYLE
  5
32
102
{ACAD_REACTORS
330
2A
102
}
330
2A
100
AcDbVisualStyle
  2
Basic
 70
     7
177
     2
291
     1
 71
     1
176
     1
 72
     0
176
     1
 73
     1
176
     1
 90
        0
176
     1
 40
-0.6
176
     1
 41
-30.0
176
     1
 62
     5
 63
     7
421
 16777215
176
     1
 74
     0
176
     1
 91
        4
176
     1
 64
     7
176
     1
 65
   257
176
     1
 75
     1
176
     1
175
     1
176
     1
 42
1.0
176
     1
 92
        8
176
     1
 66
     7
176
     1
 43
1.0
176
     1
 76
     1
176
     1
 77
     6
176
     1
 78
     2
176
     1
 67
     7
176
     1
 79
     5
176
     1
170
     0
176
     1
171
     0
176
     1
290
     0
176
     1
 93
        1
176
     1
 44
0.0
176
     1
173
     0
176
     1
  0
VISUALSTYLE
  5
36
102
{ACAD_REACTORS
330
2A
102
}
330
2A
100
AcDbVisualStyle
  2
Brighten
 70
    12
177
     2
291
     1
 71
     2
176
     1
 72
     2
176
     1
 73
     0
176
     1
 90
        0
176
     1
 40
-0.6
176
     1
 41
-30.0
176
     1
 62
     5
 63
     7
421
 16777215
176
     1
 74
     1
176
     1
 91
        4
176
     1
 64
     7
176
     1
 65
   257
176
     1
 75
     1
176
     1
175
     1
176
     1
 42
1.0
176
     1
 92
        8
176
     1
 66
     7
176
     1
 43
1.0
176
     1
 76
     1
176
     1
 77
     6
176
     1
 78
     2
176
     1
 67
     7
176
     1
 79
     5
176
     1
170
     0
176
     1
171
     0
176
     1
290
     0
176
     1
 93
        1
176
     1
 44
50.0
176
     1
173
     0
176
     1
  0
VISUALSTYLE
  5
3A
102
{ACAD_REACTORS
330
2A
102
}
330
2A
100
AcDbVisualStyle
  2
ColorChange
 70
    16
177
     2
291
     1
 71
     2
176
     1
 72
     2
176
     1
 73
     3
176
     1
 90
        0
176
     1
 40
-0.6
176
     1
 41
-30.0
176
     1
 62
     5
 63
     8
421
  8421504
176
     1
 74
     1
176
     1
 91
        4
176
     1
 64
     7
176
     1
 65
   257
176
     1
 75
     1
176
     1
175
     1
176
     1
 42
1.0
176
     1
 92
        8
176
     1
 66
     8
424
  8421504
176
     1
 43
1.0
176
     1
 76
     1
176
     1
 77
     6
176
     1
 78
     2
176
     1
 67
     7
176
     1
 79
     5
176
     1
170
     0
176
     1
171
     0
176
     1
290
     0
176
     1
 93
        1
176
     1
 44
0.0
176
     1
173
     0
176
     1
  0
VISUALSTYLE
  5
34
102
{ACAD_REACTORS
330
2A
102
}
330
2A
100
AcDbVisualStyle
  2
Conceptual
 70
     9
177
     2
291
     0
 71
     3
176
     1
 72
     2
176
     1
 73
     0
176
     1
 90
        0
176
     1
 40
-0.6
176
     1
 41
-30.0
176
     1
 62
     5
 63
     7
421
 16777215
176
     1
 74
     2
176
     1
 91
        2
176
     1
 64
     7
176
     1
 65
   257
176
     1
 75
     1
176
     1
175
     1
176
     1
 42
40.0
176
     1
 92
        8
176
     1
 66
     7
176
     1
 43
1.0
176
     1
 76
     1
176
     1
 77
     6
176
     1
 78
     2
176
     1
 67
     7
176
     1
 79
     3
176
     1
170
     0
176
     1
171
     0
176
     1
290
     0
176
     1
 93
        1
176
     1
 44
0.0
176
     1
173
     0
176
     1
  0
VISUALSTYLE
  5
35
102
{ACAD_REACTORS
330
2A
102
}
330
2A
100
AcDbVisualStyle
  2
Dim
 70
    11
177
     2
291
     1
 71
     2
176
     1
 72
     2
176
     1
 73
     0
176
     1
 90
        0
176
     1
 40
-0.6
176
     1
 41
-30.0
176
     1
 62
     5
 63
     7
421
 16777215
176
     1
 74
     1
176
     1
 91
        4
176
     1
 64
     7
176
     1
 65
   257
176
     1
 75
     1
176
     1
175
     1
176
     1
 42
1.0
176
     1
 92
        8
176
     1
 66
     7
176
     1
 43
1.0
176
     1
 76
     1
176
     1
 77
     6
176
     1
 78
     2
176
     1
 67
     7
176
     1
 79
     5
176
     1
170
     0
176
     1
171
     0
176
     1
290
     0
176
     1
 93
        1
176
     1
 44
-50.0
176
     1
173
     0
176
     1
  0
VISUALSTYLE
  5
39
102
{ACAD_REACTORS
330
2A
102
}
330
2A
100
AcDbVisualStyle
  2
Facepattern
 70
    15
177
     2
291
     1
 71
     2
176
     1
 72
     2
176
     1
 73
     0
176
     1
 90
        0
176
     1
 40
-0.6
176
     1
 41
-30.0
176
     1
 62
     5
 63
     7
421
 16777215
176
     1
 74
     1
176
     1
 91
        4
176
     1
 64
     7
176
     1
 65
   257
176
     1
 75
     1
176
     1
175
     1
176
     1
 42
1.0
176
     1
 92
        8
176
     1
 66
     7
176
     1
 43
1.0
176
     1
 76
     1
176
     1
 77
     6
176
     1
 78
     2
176
     1
 67
     7
176
     1
 79
     5
176
     1
170
     0
176
     1
171
     0
176
     1
290
     0
176
     1
 93
        1
176
     1
 44
0.0
176
     1
173
     0
176
     1
  0
VISUALSTYLE
  5
2B
102
{ACAD_REACTORS
330
2A
102
}
330
2A
100
AcDbVisualStyle
  2
Flat
 70
     0
177
     2
291
     1
 71
     2
176
     1
 72
     1
176
     1
 73
     1
176
     1
 90
        2
176
     1
 40
-0.6
176
     1
 41
30.0
176
     1
 62
     5
 63
     7
421
 16777215
176
     1
 74
     0
176
     1
 91
        4
176
     1
 64
     7
176
     1
 65
   257
176
     1
 75
     1
176
     1
175
     1
176
     1
 42
1.0
176
     1
 92
        8
176
     1
 66
     7
176
     1
 43
1.0
176
     1
 76
     1
176
     1
 77
     6
176
     1
 78
     2
176
     1
 67
     7
176
     1
 79
     5
176
     1
170
     0
176
     1
171
     0
176
     1
290
     0
176
     1
 93
       13
176
     1
 44
0.0
176
     1
173
     0
176
     1
  0
VISUALSTYLE
  5
2C
102
{ACAD_REACTORS
330
2A
102
}
330
2A
100
AcDbVisualStyle
  2
FlatWithEdges
 70
     1
177
     2
291
     1
 71
     2
176
     1
 72
     1
176
     1
 73
     1
176
     1
 90
        2
176
     1
 40
-0.6
176
     1
 41
30.0
176
     1
 62
     5
 63
     7
421
 16777215
176
     1
 74
     1
176
     1
 91
        4
176
     1
 64
     7
176
     1
 65
   257
176
     1
 75
     1
176
     1
175
     1
176
     1
 42
1.0
176
     1
 92
        0
176
     1
 66
   257
176
     1
 43
1.0
176
     1
 76
     1
176
     1
 77
     6
176
     1
 78
     2
176
     1
 67
     7
176
     1
 79
     5
176
     1
170
     0
176
     1
171
     0
176
     1
290
     0
176
     1
 93
       13
176
     1
 44
0.0
176
     1
173
     0
176
     1
  0
VISUALSTYLE
  5
2D
102
{ACAD_REACTORS
330
2A
102
}
330
2A
100
AcDbVisualStyle
  2
Gouraud
 70
     2
177
     2
291
     1
 71
     2
176
     1
 72
     2
176
     1
 73
     1
176
     1
 90
        2
176
     1
 40
-0.6
176
     1
 41
30.0
176
     1
 62
     5
 63
     7
421
 16777215
176
     1
 74
     0
176
     1
 91
        4
176
     1
 64
     7
176
     1
 65
   257
176
     1
 75
     1
176
     1
175
     1
176
     1
 42
1.0
176
     1
 92
        0
176
     1
 66
     7
176
     1
 43
1.0
176
     1
 76
     1
176
     1
 77
     6
176
     1
 78
     2
176
     1
 67
     7
176
     1
 79
     5
176
     1
170
     0
176
     1
171
     0
176
     1
290
     0
176
     1
 93
       13
176
     1
 44
0.0
176
     1
173
     0
176
     1
  0
VISUALSTYLE
  5
2E
102
{ACAD_REACTORS
330
2A
102
}
330
2A
100
AcDbVisualStyle
  2
GouraudWithEdges
 70
     3
177
     2
291
     1
 71
     2
176
     1
 72
     2
176
     1
 73
     1
176
     1
 90
        2
176
     1
 40
-0.6
176
     1
 41
30.0
176
     1
 62
     5
 63
     7
421
 16777215
176
     1
 74
     1
176
     1
 91
        4
176
     1
 64
     7
176
     1
 65
   257
176
     1
 75
     1
176
     1
175
     1
176
     1
 42
1.0
176
     1
 92
        0
176
     1
 66
   257
176
     1
 43
1.0
176
     1
 76
     1
176
     1
 77
     6
176
     1
 78
     2
176
     1
 67
     7
176
     1
 79
     5
176
     1
170
     0
176
     1
171
     0
176
     1
290
     0
176
     1
 93
       13
176
     1
 44
0.0
176
     1
173
     0
176
     1
  0
VISUALSTYLE
  5
38
102
{ACAD_REACTORS
330
2A
102
}
330
2A
100
AcDbVisualStyle
  2
Linepattern
 70
    14
177
     2
291
     1
 71
     2
176
     1
 72
     2
176
     1
 73
     0
176
     1
 90
        0
176
     1
 40
-0.6
176
     1
 41
-30.0
176
     1
 62
     5
 63
     7
421
 16777215
176
     1
 74
     1
176
     1
 91
        4
176
     1
 64
     7
176
     1
 65
   257
176
     1
 75
     7
176
     1
175
     7
176
     1
 42
1.0
176
     1
 92
        8
176
     1
 66
     7
176
     1
 43
1.0
176
     1
 76
     1
176
     1
 77
     6
176
     1
 78
     2
176
     1
 67
     7
176
     1
 79
     5
176
     1
170
     0
176
     1
171
     0
176
     1
290
     0
176
     1
 93
        1
176
     1
 44
0.0
176
     1
173
     0
176
     1
  0
VISUALSTYLE
  5
33
102
{ACAD_REACTORS
330
2A
102
}
330
2A
100
AcDbVisualStyle
  2
Realistic
 70
     8
177
     2
291
     0
 71
     2
176
     1
 72
     2
176
     1
 73
     0
176
     1
 90
        0
176
     1
 40
-0.6
176
     1
 41
-30.0
176
     1
 62
     5
 63
     7
421
 16777215
176
     1
 74
     1
176
     1
 91
        0
176
     1
 64
     7
176
     1
 65
   257
176
     1
 75
     1
176
     1
175
     1
176
     1
 42
1.0
176
     1
 92
        8
176
     1
 66
     8
424
  7895160
176
     1
 43
1.0
176
     1
 76
     1
176
     1
 77
     6
176
     1
 78
     2
176
     1
 67
     7
176
     1
 79
     5
176
     1
170
     0
176
     1
171
     0
176
     1
290
     0
176
     1
 93
       13
176
     1
 44
0.0
176
     1
173
     0
176
     1
  0
VISUALSTYLE
  5
37
102
{ACAD_REACTORS
330
2A
102
}
330
2A
100
AcDbVisualStyle
  2
Thicken
 70
    13
177
     2
291
     1
 71
     2
176
     1
 72
     2
176
     1
 73
     0
176
     1
 90
        0
176
     1
 40
-0.6
176
     1
 41
-30.0
176
     1
 62
     5
 63
     7
421
 16777215
176
     1
 74
     1
176
     1
 91
        4
176
     1
 64
     7
176
     1
 65
   257
176
     1
 75
     1
176
     1
175
     1
176
     1
 42
1.0
176
     1
 92
       12
176
     1
 66
     7
176
     1
 43
1.0
176
     1
 76
     1
176
     1
 77
     6
176
     1
 78
     2
176
     1
 67
     7
176
     1
 79
     5
176
     1
170
     0
176
     1
171
     0
176
     1
290
     0
176
     1
 93
        1
176
     1
 44
0.0
176
     1
173
     0
176
     1
  0
ENDSEC
  0
EOF
